<?xml version="1.0" standalone="no"?>
<!DOCTYPE svg PUBLIC "-//W3C//DTD SVG 1.1//EN" "http://www.w3.org/Graphics/SVG/1.1/DTD/svg11.dtd">
<svg xmlns="http://www.w3.org/2000/svg">
<metadata>Copyright (C) 2022 by original authors @ fontello.com</metadata>
<defs>
<font id="service_set" horiz-adv-x="1000" >
<font-face font-family="service_set" font-weight="400" font-stretch="normal" units-per-em="1000" ascent="850" descent="-150" />
<missing-glyph horiz-adv-x="1000" />
<glyph glyph-name="airer" unicode="&#xe800;" d="M10 838c-5-6-10-14-10-17 0-12 125-297 139-317 23-32 48-41 116-41l60 0 137-115c76-63 137-117 136-119-1-3-88-78-195-168-129-109-194-168-195-177-2-18 16-36 32-33 7 1 102 77 211 168 109 92 199 166 201 166 2 0 93-75 202-166 108-91 203-167 210-168 17-3 35 15 32 33-1 9-66 68-195 177-107 90-194 165-195 168 0 2 61 56 136 119 121 101 140 115 160 115l22 0 0 58-40 0c-22 0-40 2-40 4 0 1 4 11 9 22 9 17 13 19 40 19l31 0 0 26c0 24-1 26-19 26-21 0-21-2-9 28 8 19 13 23 27 23l19 0 1-213c2-181 4-214 12-220 14-9 149-8 158 2 6 6 8 61 8 207l0 199 37 85c20 47 36 88 36 92 0 4-5 13-12 19-15 14-41 9-46-10-4-12-10-13-86-12-77 0-83 1-87 13-5 18-32 23-45 9-6-7-38-76-71-153-33-77-66-145-72-151-11-11-31-12-223-12-194 0-212 1-223 12-6 6-39 74-72 151-33 77-65 146-71 153-13 14-40 9-46-9-3-12-9-13-86-13-47 0-82 3-82 6 0 10-19 26-30 26-6 0-16-5-22-12z m1157-169l0-393-86 0 0 393 86 0z m-300-209c0-2-47-41-103-88-57-47-108-89-113-94-8-7-25 5-113 79-58 48-109 91-114 97-7 8 21 9 217 9 124 0 226-2 226-3z m-805 6c0-117 1-139 9-148 8-8 27-10 102-10 51 0 97 3 104 7 11 5 12 14 12 64l0 58-43 0 0-77-68-2c-38-1-70 0-71 1-1 2-2 39-2 82 0 74-1 81-19 121-11 23-20 43-22 43-1 0-2-62-2-139z m184 77c0-24 0-24-22-20-24 4-37 13-46 31-6 11-3 12 31 12l37 0 0-23z m95 4c5-11 10-21 10-23 0-2-13-3-30-2-28 2-29 3-31 23-2 20-1 21 20 21 17 0 23-4 31-19z m-95 122l0-51-97 0-19 51 116 0z m61-46c0-3-4-5-9-5-6 0-9 6-9 21l0 20 9-16c5-8 9-18 9-20z m-53 127c6-12 11-26 11-29 0-4-32-6-77-6l-77 0-13 25c-6 14-12 27-12 29 0 2 35 4 79 4l78 0 11-23z m944 19c0-2-5-15-12-29l-13-25-76 0c-45 0-77 2-77 6 0 3 5 17 10 29l10 23 79 0c44 0 79-2 79-4z" horiz-adv-x="1306" />

<glyph glyph-name="baby" unicode="&#xe801;" d="M904 283c-23-10-33-39-23-60 13-25 50-62 82-81l13-7 1-71-10-10c-19-18-33-43-40-70-3-10-4-19-4-35 0-23 2-36 9-57 4-12 6-15 13-23 9-9 22-15 33-15 16 0 35 13 42 28 3 8 3 12 3 22-1 7-2 17-4 22-1 5-3 15-3 23 0 11 1 15 5 24 8 14 9 15 18 11 15-7 25-8 44-8 17 0 26 2 45 10 3 1 5-1 9-7 3-5 6-11 7-14 3-8 1-36-3-46-7-19-2-40 13-53 19-16 44-15 62 3 8 8 10 11 14 23 6 21 8 34 8 57 0 41-13 73-42 104l-11 12 1 68 6 3c23 11 53 36 72 58 16 19 20 27 20 41 0 21-13 39-32 45-12 3-16 3-27 0-11-3-18-9-31-25-23-29-58-47-97-52-15-1-20-1-35 1-42 7-71 26-100 64-11 14-22 19-38 19-9 0-14-1-20-4z m-91 225c-14-2-28-12-38-25-12-17-12-40-2-59 2-3 7-9 11-14l8-9 0-35-710 0 0 34 7 8c13 14 18 24 20 37 3 22-12 47-33 58-9 4-9 4-22 4-12 0-14 0-19-3-11-5-26-20-30-31-4-9-6-21-4-30 2-12 6-20 17-32l9-10 0-140c1-76 1-196 1-265l0-127 6-6c8-7 12-9 21-9 9 0 13 2 20 10l6 6 1 48c0 27 1 49 1 49 0 0 159 0 354 0l355 0 1-19c0-10 0-32 0-48l0-30 7-6c8-8 11-10 20-10 9 0 13 2 21 9l6 7 1 530 9 10c24 27 24 55 1 80-14 14-28 20-45 18z m348-417c0-31-7-50-24-67-31-31-81-31-113 0-17 17-24 36-24 68l0 17 161 0 0-18z m-1024 217l0-198-55 0 0 198 55 0z m109 0l0-198-55 0 0 198 55 0z m110 0l0-198-55 0 0 198 55 0z m109 0l0-198-55 0 0 198 55 0z m110 0l0-198-55 0 0 198 55 0z m108 0l0-198-54 0 0 198 54 0z m109 0l0-198-53 0 0 198 53 0z m266 149c-41-9-75-42-85-83-18-70 36-139 108-139 61 0 112 51 112 112 0 30-12 57-34 79-15 15-26 22-46 28-10 4-43 5-55 3z m-846 392c-17-1-28-1-31-2-7-3-15-16-15-26 0-6 4-15 8-19 6-7 11-8 29-9l16 0-1-47c0-25 0-47-1-47 0-1-4 1-8 4-4 2-8 5-9 5-1 0-1-14 0-30l1-11-13-13c-7-8-12-15-12-15 1-1 14-5 33-10 2 0 5-4 8-11 3-6 8-14 10-18 4-7 4-7 6-5 1 2 17 31 18 33 0 1 6 1 14 2 15 2 24 4 24 6 0 0-6 7-13 15-9 11-12 15-12 17 1 6 4 28 4 32 0 6 0 6-12 0-4-1-8-3-9-3-1 0-1 15-1 48l0 48 166 0 0-94-13-14c-15-17-21-24-28-37-8-14-14-31-17-49-1-11-1-36 0-47 6-34 25-69 51-91 19-15 36-23 69-31 3-1 2 0-6 10-13 13-21 24-27 35-23 38-28 88-15 133 3 12 13 32 20 44 9 13 27 31 40 41 10 7 34 20 40 21 5 1 4 3-1 5-4 1-11 2-32 2-26-1-27-1-38-4-8-2-13-3-14-3 0 1-1 17-1 40l0 39 162 0 0-69c-1-44-2-69-2-69-1-1-6-1-15 2-15 3-15 3-15 1 0 0 3-10 7-22l8-21-3-5c-1-2-6-11-10-19-5-8-8-16-8-17 0-1 4-1 22-1l22 0 18-21c6-7 11-13 12-13 1-1 5 10 10 29 2 8 4 16 4 16 1 0 9 4 20 9 11 5 20 9 20 10 1 2-4 6-21 18l-14 10-1 9c-1 15-4 37-5 38 0 0-4-2-9-6-5-4-9-7-10-6-1 0-1 2-2 3 0 2-1 31-1 64l0 60 17 0c19 1 23 2 29 8 7 5 9 12 9 20 0 12-4 18-15 26l-4 3-213 0c-117 0-225-1-240-1z" horiz-adv-x="1306" />

<glyph glyph-name="bath" unicode="&#xe802;" d="M90 191c0-60 3-89 10-111 11-32 41-71 72-95l11-8 0-55c0-29 1-56 2-58 2-3 5-7 8-9 5-4 9-5 36-5l31 0 15 12 0 35c1 20 2 35 2 35 1 0 11-1 22-4 11-2 31-4 45-5 35-3 569-3 598 0 13 1 33 3 44 6 10 2 20 3 21 3 1 0 1-15 1-35l0-35 7-6c8-6 8-6 39-6 32 0 32 0 40 6l7 6 0 115 12 8c31 24 60 63 70 95 8 24 11 51 11 110l0 53-1104 0 0-52z m141 656c-10-2-28-8-40-12-18-7-26-12-44-27-34-26-49-49-54-83-2-10-3-84-3-195l0-180-36 0c-53 0-54 0-54-35 0-24 0-25 6-30l6-6 1260 0 6 6c6 5 6 7 6 29 0 23-2 29-10 34-3 2-124 2-547 2l-544 0 1 374 7 12c9 14 27 29 44 36 13 4 17 5 40 5 22 0 26-1 39-5 22-9 24-11 20-18-11-19-13-32-12-51 1-21 6-35 20-52l7-10-9-7c-5-4-9-9-9-11 0-6 35-32 42-32 6 0 237 179 237 183 0 2-9 10-20 18-22 17-24 18-38 7l-8-7-12 6c-28 15-72 20-106 14l-19-4-16 10c-21 14-34 19-59 26-27 7-73 8-101 3z m234-359c-4-3-6-7-6-13 0-11 9-17 23-17 14 0 22 7 22 18 0 10-8 17-23 17-7 0-11-1-16-5z m52 39c-14-5-17-19-6-28 13-10 32-7 38 6 7 16-13 29-32 22z m44 35c-14-6-14-25 1-31 9-4 13-4 22 0 13 5 16 22 5 29-6 5-20 6-28 2z m-94-2c-6-4-8-6-8-12 0-12 9-19 22-19 14 0 23 7 23 19 0 6-1 8-8 12-4 3-11 5-15 5-4 0-10-2-14-5z m136 36c-5-4-6-7-6-13 0-11 8-18 22-18 14 0 23 7 23 17 0 15-25 24-39 14z m-91-1c-9-7-10-13-4-22 4-6 8-8 21-8 16 0 26 13 19 25-6 12-24 14-36 5z m136 36c-9-7-8-19 1-26 15-11 38-4 38 13 0 11-8 18-22 18-8 0-12-2-17-5z m-183 0c-4-4-6-7-6-13 0-11 8-18 22-18 21 0 31 20 17 31-9 6-24 6-33 0z m92-1c-9-7-9-19 0-25 15-9 36-3 39 11 1 6 0 8-5 13-6 5-9 7-18 7-8 0-12-2-16-6z m55 41c-10-3-15-9-15-17 0-17 22-25 38-13 9 7 10 17 1 25-5 5-17 7-24 5z m86-2c-12-6-14-19-4-28 6-5 19-6 28-3 16 7 16 26-1 32-11 3-13 3-23-1z m-180 2c-8-3-14-10-14-17 0-20 38-25 45-6 5 16-13 29-31 23z m227 35c-7-2-13-13-11-20 3-11 17-17 30-13 17 4 22 19 9 29-8 6-17 7-28 4z m-187-2c-13-8-10-25 5-30 18-7 36 4 33 19-3 13-24 19-38 11z m91-2c-12-10-9-24 7-29 15-5 31 3 31 15 0 10-2 14-10 17-11 4-20 3-28-3z" horiz-adv-x="1306" />

<glyph glyph-name="bar" unicode="&#xe803;" d="M153 850c-33-1-39-1-47-3-16-4-23-6-32-10-34-14-57-34-69-62l-5-11 0-822 3-6c8-13 22-25 38-31 17-6 23-7 62-7l35 0 0-16c0-17 2-22 8-26 8-4 13-5 66-5 71-1 83 0 90 9 3 3 3 6 4 21l0 17 671 0 1-17c0-16 1-17 3-21 8-9 19-10 88-9 56 0 61 1 68 5 7 4 8 9 8 26l0 16 77 0 11 4c25 7 43 22 49 40 2 5 2 54 2 410 0 278 0 406-1 411-3 9-10 24-16 32-18 24-47 42-84 50-13 4-17 4-35 4-34 1-954 1-995 1z m232-651c1-5 2-30 2-55 0-47-1-62-7-99-3-21-2-25 5-31 2-2 7-4 10-5 6-2 12-2 126-2 116 0 120 0 125 2 14 5 18 12 16 26-2 15-5 45-7 69-2 23-1 75 1 96l1 9 78 0 0-93c0-58 0-90 1-93 2-6 8-12 15-15 3-1 20-1 106-1l102 0 6 2c3 1 7 4 9 7l4 5 1 188 182 0 1-220-517 0-410 0 0 220 149 0 1-10z m406 8c0-1 0-41 0-89 0-68 0-88-1-90-2-2-3-3-12-3-7 0-9 0-11 2-1 1-2 20-2 92l0 90 13 0c9 0 12 0 13-2z m-158 2l0-107-72 0c-39 0-90 0-112 0l-41 0 0 107 225 0z m-510 250c12-4 19-11 22-22 1-5 1-32 1-91l-1-84-4-6c-6-10-19-16-35-16-15 0-28 6-35 16l-4 6 0 177 4 6c10 15 32 20 52 14z m670-33c3-3 3-6 0-25-1-6-2-35-2-76l0-66-26-1 0 63c0 73 2 90 10 101 5 7 12 9 18 4z m369 333l0-500-183 0 0 66c-1 63-1 66-4 79-5 20-12 33-30 59-21 33-24 40-28 79-1 13-4 42-6 64-3 23-5 43-5 45 0 1 1 3 3 3 7 2 7 4 1 17-5 12-5 12-2 13 2 0 4 2 4 3 0 3-2 10-6 13-6 6-8 7-49 7-34-1-39-1-43-2-6-3-9-7-11-12-1-7 0-9 3-9 3 0 3-1 2-2-9-21-10-27-3-28 3-1 3 0-1-43-13-120-11-112-35-148-19-27-27-44-31-67-2-10-3-53-3-109l0-28-75 0 1 2c1 1 2 11 2 22 1 27-1 40-11 60-4 8-17 25-24 31-7 7-21 25-26 32-4 7-5 8-9 8-13 2-24-1-42-9-21-10-41-10-63 1-5 2-12 5-15 6-6 2-19 3-25 2-4 0-5-1-10-9-2-4-11-15-19-24-20-23-22-25-28-35-11-20-15-35-13-63 0-11 1-21 2-22l0-2-145 0 0 500 927 0z m-684-148c-2-1-7-2-10-2l-5-1-5-11c-3-6-5-11-5-13 0-1 2-3 5-4l4-1-2-8c-4-11-10-33-12-48-3-13-3-55-2-69l1-7 8 0c10 0 21 3 29 7 16 8 22 10 36 10 13 0 14-1 24-4 5-3 12-6 15-7 6-4 17-6 27-6l7 0 1 7c2 14 1 56-1 69-2 14-7 35-12 49l-3 7 4 2c3 0 5 2 5 3 1 1-1 7-4 13l-4 11-6 1c-3 0-8 1-11 2-5 2-5 2-11 0-8-3-17-3-24 0l-6 2-7-2c-8-3-16-3-23 0-7 2-7 2-13 0z m364-37c0-59 0-76-2-79-2-3-8-5-13-3-8 2-8 3-5 40 1 19 3 37 4 41 0 8 6 73 6 76 0 1 1 2 5 2l5 0 0-77z m-731 137l0-13 4 4c4 3 4 4 7 2 2-2 2-3-4-8-6-6-7-7-7-11l0-6 6 5c6 6 6 6 9 4 3-2 3-2-6-9l-9-8 0-8c0-4 1-7 1-7 1 0 5 2 9 4 7 3 8 3 12 12 5 9 6 11 10 9 1-1 1-2-1-7-2-4-2-6-2-6 1 0 3 1 6 2 3 1 5 4 8 9 4 8 5 9 10 7 1-1 1-1-1-5-3-4-2-4 6-1 6 3 7 3 9 1 3-3 2-4-4-7-8-3-9-4-4-4 3 0 5 0 6-1 3-1 1-6-2-5-1 0-6 1-11 1-7 1-10 0-14-1-5-3-5-3 5-4 7-1 8-1 7-4-1-3-1-3-17-1-7 1-12 1-13 1l-16-7 10-4c9-4 8-4 31 0 4 0 4 0 5-2 1-3 0-3-5-4-2 0-6-1-8-1-4-1-4-1 1-3 5-3 6-3 16-2 9 2 11 1 12 0 2-2 1-4-2-4-2 0-5 0-6-1-2-1-2-1 4-3 7-3 8-4 5-7-2-2-3-2-9 1-4 1-7 3-7 3-1 0 0-2 1-4 2-4 1-6-3-6-2 0-6 7-9 12 0 1-3 3-6 5l-6 2 3-6c2-5 2-6 1-7-5-2-6 0-13 14-1 3-3 5-10 7l-9 4 0-8c0-8-1-6 16-21 2-2 2-2-1-3-3-2-4-1-9 3l-6 5 0-5c0-4 1-6 7-11 6-6 6-7 4-8-2-1-3-1-7 2l-3 3-1-6c0-6-1-6-5-6-4 0-4 0-5 5l0 6-4-3c-3-2-4-2-7-1-2 2-2 2 4 8 6 6 8 9 7 14 0 1-2 0-5-3-5-4-6-5-9-3-4 1-4 1 7 11 7 6 7 6 7 13l0 8-8-3c-9-4-9-4-14-13-3-8-5-10-7-10-4 0-4 2-1 8 1 3 2 6 2 6 1 0-2-1-5-2-6-3-7-4-13-16 0-1-3-2-6 0-2 0-1 1 0 5 2 2 2 4 2 4 0 0-3-2-7-3-7-3-7-3-9-1-3 3-3 3 5 7l6 3-6 1c-5 0-6 1-5 3 2 3 1 3 13 2 9-2 10-1 15 1 5 2 5 2 2 3-2 0-6 1-9 1-5 1-5 1-5 4 1 2 2 2 6 2 22-4 22-4 31 0 9 4 9 4 6 6-12 5-15 6-28 4-7-1-13-1-13-1-1 0-1 1-2 3-1 2 0 2 7 3 5 0 9 1 9 1 0 1-1 2-4 3-4 2-6 2-14 1-5 0-10-1-11-1-3-1-4 4-2 5 1 1 4 1 6 1 5 0 4 1-3 4-7 3-7 4-4 7 2 2 2 2 9-1l8-4-3 5c-2 4-2 4 2 5 3 1 4 0 7-7 3-5 5-8 9-9 2-1 5-2 5-2 1 0 0 3-2 6-2 5-2 6-1 7 4 2 6 1 10-9 5-9 5-10 13-13 4-2 8-3 8-3 1 0 1 11 1 14 0 0-4 4-8 8-8 7-9 8-6 10 2 1 4 1 8-3l6-5 0 5c0 4-1 5-6 10-5 5-6 7-5 8 2 2 5 2 7-1 4-4 5-3 4 3l0 6 10 0z m363-66c-7-1-14-4-18-8-4-5-5-16 0-18 4-1 14-1 20 1 3 2 7 3 8 3 1 0 5-1 8-3 7-2 12-2 22 1l7 2 7-2c8-3 13-3 21-1 3 2 6 3 8 3 1 0 4-1 8-3 6-2 16-2 20-1 3 1 3 3 3 7 0 4-1 8-2 9-3 5-11 9-18 10-8 1-87 1-94 0z" horiz-adv-x="1306" />

<glyph glyph-name="beach" unicode="&#xe804;" d="M227 5c-10-7-19-14-19-15 0-5 41-80 50-90 18-22 41-32 96-39 69-9 100-11 215-10 108 0 146 1 258 9 98 7 132 11 149 17 17 7 37 20 46 33 7 9 7 9 2 13-12 9-142 95-144 95-1 0-35-23-75-50-41-27-77-50-81-51-3 0-7 1-10 2-37 26-148 99-150 99-1 0-35-23-77-51-42-28-78-50-81-50-4 0-63 38-138 89-10 6-19 12-20 12-1 0-10-6-21-13z m-27 120l-47-32 12-22c7-13 16-30 20-39 5-9 9-16 10-16 1 0 12 6 24 14 16 11 24 15 29 15 8 0 19-7 126-79l32-22 76 51c59 40 77 50 82 50 6 0 25-11 83-50l75-51 13 9c8 5 41 27 75 50 33 22 63 41 66 42 3 1 8 1 11-1 3-1 38-24 78-51 52-34 74-48 76-46 3 3 75 153 74 154-1 0-17-10-36-22-21-15-36-23-40-23-5 0-27 13-76 46-39 26-73 49-77 51l-6 4-76-51c-50-34-77-50-82-50-4 0-31 16-81 50-67 45-77 51-81 48-2-2-33-22-69-46-80-53-79-52-86-52-3 0-35 20-80 50-42 28-76 50-77 50-1 0-23-14-48-31z m-21 124c-39-26-72-48-74-50-3-2-1-8 16-42 14-27 20-38 23-38 2 1 25 16 51 33 32 22 49 32 53 32 5 0 29-15 79-49 40-26 74-49 76-50 2-2 24 11 79 48 51 34 78 51 82 51 6 0 57-33 140-89 15-11 18-12 22-10 3 2 37 25 76 51 51 33 74 48 79 48 4 0 13-5 26-13 10-8 44-30 75-51l57-38 50 34 51 34 32 68c18 37 33 68 33 69 0 1-2 4-4 5-4 2-15-4-77-46-40-26-76-49-79-51-6-2-8-2-15 1-4 2-39 25-78 51l-72 48-74-50c-41-27-77-50-79-51-3-1-7-1-10 0-3 1-38 24-79 52l-74 49-8-5c-94-64-138-93-144-95-9-4-10-3-49 23-18 12-51 34-73 49l-42 28-69-46z m4 141c-82-55-88-59-93-59-3 0-19 10-36 21-18 12-33 20-33 19-1-3 64-144 68-148 1-1 36 21 78 49 42 28 78 51 81 51 4 0 103-64 146-94 5-4 11-7 12-7 1 0 31 19 66 42 80 54 87 59 93 59 2 0 38-23 78-50 41-27 76-50 77-51 2 0 38 22 80 50 41 28 78 51 80 51 3 0 39-23 81-51 42-28 77-50 78-50 1 0 35 22 77 50 42 28 78 51 80 51 3 0 9-3 13-6 8-5 9-5 11-1 23 46 35 75 34 77-1 3-54 39-57 39-1 0-36-23-78-51-41-27-78-50-80-50-3 0-40 23-81 50-42 28-77 51-78 51-1 0-34-22-74-49-40-27-75-49-78-50-3-2-7-2-10 0-4 1-38 23-78 49-39 27-72 49-74 49-2 1-37-22-79-49-41-28-78-51-81-51-4 0-39 22-130 83-14 10-27 18-28 18-1 0-30-19-65-42z m365 458c-90-14-158-95-190-225-9-34-14-66-17-91l-1-20-60-6c-89-10-155-21-223-35-27-5-33-7-42-14-11-8-17-21-14-33 1-6 7-11 45-36 44-29 44-30 50-26 15 11 138 93 144 96 6 3 9 3 14 1 3-2 39-25 79-52l73-49 76 51c53 35 78 51 82 51 4 0 11-4 18-8 6-4 40-27 76-50l64-43 14 9c141 94 141 94 149 92 2-1 37-24 77-51 41-27 75-49 77-49 1 0 35 22 74 48 40 27 75 49 78 51 8 3 10 2 46-22 17-11 31-19 32-19 1 1 5 9 9 19 7 16 7 18 4 26-3 10-11 18-21 22-13 6-137 20-229 28-65 5-58 2-66 24-25 68-62 131-107 181-22 25-80 71-107 86-64 34-149 53-204 44z m105-70c25-7 40-15 60-31 42-34 70-91 81-167 2-15 4-33 4-40l0-13-112 0c-99 0-167-2-235-6l-21-2 0 14c0 55 20 125 47 168 39 63 113 95 176 77z" horiz-adv-x="1306" />

<glyph glyph-name="bbq" unicode="&#xe805;" d="M1030 639c-18-6-37-20-47-37-3-5-25-41-49-80l-44-72-50-17c-28-9-52-17-52-17-2 0-10 26-18 58-2 4-3 6-5 7-3 0-4 4-14 41l-10 41 4 3c1 2 3 5 3 6 0 2-4 15-8 30l-8 28 0-27c0-21 0-28-2-28-1 0-5 6-9 14-11 22-17 33-17 33-1-1 11-53 13-57 0-1 3-3 5-4l5-2 10-41c9-34 10-41 9-42-3-1-3-4 5-39l7-31-5-2c-3-2-6-3-7-3-2 0-2 0-2-1 0-3 16-59 17-60 0 0 31 6 67 14 36 9 74 18 84 20 10 2 20 5 23 6 7 4 14 13 29 37 8 14 15 25 16 25 0 0 1-11 2-24 4-43 8-94 10-110 1-16 1-17-10-95-6-43-11-83-12-88-1-5-1-20 1-41 1-18 3-66 6-106 2-40 5-83 6-94 0-12 1-24 1-27l0-6 79 0-1 8c-1 10-18 212-19 231-1 9 0 35 3 78 4 59 4 63 5 49 0-8 1-36 1-63 0-44 1-56 10-172 5-69 10-126 10-128l1-3 87 0-1 14c0 7-1 30-2 50 0 20-1 73-3 117-1 44-2 126-2 182-1 108-1 104-12 237-3 33-4 60-4 60 0 1 64-35 67-38 2-2 2-4 9-100 2-29 5-55 5-58l1-6 12 0c6 0 21 0 32 1l20 1 2 95c1 95 0 96-2 104-2 5-6 11-10 14-3 4-29 20-66 41-33 19-68 38-77 44-53 30-53 30-75 31-11 0-19 0-24-1z m-919-333c-1-3 1-25 4-41 10-61 45-118 96-155 12-9 14-11 13-14 0-2-58-179-70-216-2-7-4-13-3-14 2-2 33-11 34-10 0 1 7 21 15 45l14 44 292 0 2-8c5-15 26-80 27-81 2-2 35 10 34 12 0 2-4 15-32 101-36 109-44 133-43 133 0 0 5 4 10 8 23 17 41 36 57 59 10 14 25 45 30 61 6 17 11 43 12 61l1 16-6 0c-4 1-114 1-246 1-199 0-240 0-241-2z m232 495c-2-1-7-7-11-14-5-7-9-13-9-13 0 0-6 2-13 4-39 11-87 11-127 0-91-24-160-96-180-189-3-15-3-21-3-50 0-28 1-35 3-47 5-23 11-40 22-62 17-33 37-59 65-81 14-12 24-18 26-17 0 1 46 73 164 263 25 41 57 92 70 113 14 22 25 40 25 41 0 1-2 2-5 3-7 3-7 5-1 15 4 7 6 12 6 15 0 13-20 25-32 19z m-42-253c-7-7-7-9-4-12 4-3 11-18 12-27 2-10 0-23-4-32-2-3-7-11-11-16-11-13-14-18-18-28-6-18-5-39 2-56 4-9 14-22 16-22 1 0 5 3 8 6l6 7-5 8c-7 11-10 19-10 32 0 16 4 25 16 39 11 13 17 25 20 40 3 16 1 31-6 46-4 9-12 21-15 21 0 0-4-3-7-6z m67-1c-6-7-6-7-4-10 2-1 5-7 8-12 5-9 5-10 5-24 0-18-3-26-16-40-16-18-22-36-21-58 1-15 5-27 13-38 8-11 9-12 16-3l7 7-6 8c-15 22-12 49 8 72 5 5 10 13 12 16 12 24 11 54-2 75-5 8-10 14-12 14 0 0-4-3-8-7z m69 0l-7-7 3-5c2-2 6-8 8-13 3-7 4-10 4-21 0-12-1-14-5-23-2-5-7-13-11-17-15-16-21-31-21-53 0-16 3-28 11-41 9-13 10-14 18-6l7 7-5 7c-7 10-10 18-10 34 0 17 3 25 16 39 10 11 16 22 19 35 3 12 2 32-2 44-4 8-14 25-17 26-1 1-5-2-8-6z m530 302c-21-3-39-12-54-29-19-20-27-41-25-68 1-24 8-43 24-60 42-45 115-38 149 13 3 5 7 15 10 22 3 11 4 15 4 30 0 14-1 18-4 28-13 37-45 62-85 65-5 0-14 0-19-1z" horiz-adv-x="1306" />

<glyph glyph-name="bt" unicode="&#xe806;" d="M963 163c-8 6-15 12-24 19l-56 49-50 1c-34 0-51 0-59 1-10 1-15 3-19 5-4 2-7 4-11 9-6 6-9 9-11 24-1 8-2 28-2 81 0 52 1 70 1 77 1 8 2 11 4 14 0 0 0 0 0 0 5 12 13 19 24 24 0 0 0 0 0 0 2 1 6 2 14 3 7 0 23 0 60 0 0 0 50 0 50 0 0 0 56 49 56 49 8 7 15 13 23 19-16 37-35 73-60 107-9 12-30 36-46 54-76 77-170 127-274 144-29 5-104 9-122 6-5-1-21-3-35-5-166-22-317-138-385-296-69-158-50-342 49-484 24-35 88-99 123-123 149-104 341-119 504-40 53 26 88 51 135 97 46 47 71 81 97 134 5 10 9 20 14 31z m-474 553c13-7 237-172 245-180 8-9 9-26 2-36-2-4-50-40-105-81-56-41-101-75-101-76 0-1 46-36 103-77 56-42 104-78 105-81 6-10 4-24-6-34-4-6-62-49-127-96-104-77-119-87-130-87-8 0-14 2-20 8l-8 9 0 148c0 82-1 149-2 149-1 0-29-21-63-45-33-25-61-45-62-45-3 4-33 47-33 48 0 1 31 25 69 52l69 51-8 5c-4 4-34 26-67 50-33 24-61 45-61 47-2 3 29 48 33 48 1 0 28-20 61-43 32-24 60-44 61-44 2 0 3 65 3 147 0 129 0 147 5 154 9 12 23 16 37 9z m19-544c0-61 1-111 2-111 3 0 148 107 148 109 0 1-29 23-65 49-35 26-69 51-75 56l-10 7 0-110z m517 382c-2-1-32-26-67-56l-64-55-60 0c-52 0-60-1-63-2-5-2-8-5-10-9-2-4-2-8-2-80 0-84 0-80 6-86 6-7 2-6 68-7l61 0 64-56c35-30 65-56 67-57 8-3 19 1 24 10l2 4-1 383-3 4c-5 7-15 10-22 7z m168-2c-7-3-11-10-11-17 0-6 2-10 7-17 9-12 20-29 28-45 15-29 23-56 28-90 2-14 1-55-1-69-7-49-25-92-53-129-8-11-9-14-9-19 0-15 16-25 28-17 8 6 29 37 41 60 18 35 29 76 32 116 2 16 1 50-1 65-7 55-27 104-60 147-4 7-10 13-11 14-5 3-13 3-18 1z m-50-50c-6-3-11-9-11-17 0-5 2-8 8-17 19-27 31-60 35-94 1-11 1-37 0-48-4-33-16-65-33-91-9-14-10-15-9-21 1-16 19-24 31-13 8 7 27 42 35 63 21 55 21 114 1 170-8 21-27 56-36 65-5 5-14 7-21 3z m-54-54c-4-2-8-6-10-11-2-6 0-11 5-20 12-21 18-42 18-67 0-26-5-43-21-72-4-6-4-12-1-18 7-13 24-14 33-2 5 7 16 30 19 41 11 34 11 70 0 103-4 14-15 36-21 42-5 6-15 8-22 4z m-581 69c0-63 1-111 3-110 5 2 147 107 147 109 0 2-133 101-146 109-3 2-4-17-4-108z" horiz-adv-x="1306" />

<glyph glyph-name="car" unicode="&#xe807;" d="M503 848c-104-5-168-16-196-34-25-15-65-82-109-181l-25-56-14 13c-8 7-19 14-24 16-5 2-29 4-55 4-36 0-48-1-57-6-15-7-23-22-23-41 0-13 2-18 10-27 10-13 18-16 71-31 17-5 32-10 34-11 1-1-14-21-33-45-19-23-38-49-42-58-18-37-18-31-18-285l0-233 11-11 11-11 85 0c72 0 86 0 92 5 14 10 17 21 17 66l0 41 821 0 0-40c0-27 2-43 5-51 8-20 14-21 104-21 86 0 93 1 103 16 5 8 6 24 6 222 1 131 0 225-2 242-5 41-20 71-62 121-18 22-32 41-31 42 1 1 20 7 40 13 47 13 63 20 70 33 7 13 6 36-1 49-11 18-22 21-79 20l-51-1-37-31-11 26c-19 46-65 137-84 167-10 15-23 33-29 38-21 18-70 30-153 37-54 5-278 7-344 3z m350-69c48-5 91-12 101-18 5-3 15-16 22-29 17-28 103-205 101-207 0-1-33 2-74 5-248 22-528 21-749-4-18-2-33-3-34-2-2 2 80 171 99 205 10 18 20 30 25 33 18 8 94 18 173 21 49 3 301-1 336-4z m-620-396c35-18 57-57 55-98-2-27-8-37-30-49-38-19-94-12-128 18-25 22-32 64-14 96 16 32 40 45 76 43 17-1 28-3 41-10z m906 6c31-11 52-42 52-77-1-36-16-59-53-76-14-7-22-9-47-9-36 0-54 6-70 23-9 10-11 14-12 32-2 33 14 71 39 91 25 20 63 26 91 16z m-347-204c3-3 4-16 4-38 0-21-1-35-4-37-5-6-282-6-287 0-2 2-4 16-4 38 0 29 1 34 6 37 8 5 280 5 285 0z" horiz-adv-x="1306" />

<glyph glyph-name="crib-icon" unicode="&#xe808;" d="M654 561c-37-17-54-65-37-100 21-42 83-103 135-134l22-12 1-118-16-16c-31-30-54-71-66-115-5-18-7-32-7-58 0-38 4-60 15-95 6-20 9-26 22-38 15-15 35-25 54-25 27 0 58 21 69 47 6 13 7 19 5 36-1 11-3 27-6 36-2 9-4 26-4 38-1 19 1 25 8 39 12 24 14 26 30 19 25-11 41-14 72-13 29 0 43 3 75 17 4 1 7-1 14-12 5-8 10-18 12-24 4-13 2-59-4-75-12-31-3-66 20-87 32-28 74-26 104 4 13 12 16 18 22 38 11 35 14 57 14 95 0 66-22 120-69 171l-19 20 1 113 11 5c37 18 88 59 119 95 27 33 33 45 33 69 0 34-22 64-53 73-19 6-27 6-45 1-18-6-30-15-50-41-40-48-97-78-161-86-25-2-34-2-59 2-69 11-118 42-165 105-18 23-36 33-63 33-14 0-23-2-34-7z m-619 287c-8-4-15-13-18-22-1-5-2-70-1-198l0-191 5-8c6-9 15-13 29-15l11-1-1-7c-2-16-60-498-60-503 0-2 2-8 4-12 9-18 33-23 47-10 9 7 12 13 14 35l3 19 338 0 2-19c2-22 5-28 14-35 14-13 38-8 47 10 2 4 4 10 4 12 0 5-58 487-60 503l-1 7 11 1c22 3 33 14 33 32 0 11-4 19-13 26-7 5-7 5-40 6l-33 1 0 55c0 33-1 59-2 65-6 29-27 52-56 62-9 3-23 3-121 4l-111 1 0 79c0 80 0 80-4 88-8 15-26 21-41 15z m335-618c0-1 6-52 13-112 8-61 14-113 14-115 0-3-2-4-161-4l-160 0 0 4c0 3 6 54 14 114 7 61 13 111 13 113 0 2 23 2 133 2 99 0 134 0 134-2z m710 13c0-52-11-83-40-112-51-52-134-51-186 0-29 29-39 60-39 113l0 29 266 0-1-30z m-733 170l15-116-251 0 15 116c0 0 50 1 110 1 62 0 111-1 111-1z m-244 188l0-123-23 0 0 123 23 0z m101 0l0-123-38 0 0 123 38 0z m97-7l5-5 1-111-38 0 0 123 14-1c11 0 13-1 18-6z m609 254c-68-14-124-69-142-137-29-115 60-230 180-230 100 0 185 84 185 185 0 50-20 95-57 131-23 24-42 36-75 47-17 6-71 8-91 4z" horiz-adv-x="1306" />

<glyph glyph-name="cycling" unicode="&#xe809;" d="M1056 256c-35-4-72-18-102-39-17-12-44-38-55-55-37-52-45-115-24-172 11-30 27-53 53-78 36-35 75-54 123-60 66-9 140 21 186 76 22 27 35 52 43 84 3 13 4 19 4 40 0 27-2 38-9 60-11 31-28 57-53 82-33 31-73 52-115 59-10 2-41 4-51 3z m-867-1c-78-9-149-63-178-136-8-22-11-38-11-64 0-15 1-29 2-36 15-72 74-136 147-159 23-7 37-9 62-9 53 0 101 20 142 57 20 19 34 37 45 59 18 33 23 56 22 93-1 19-2 27-5 38-11 40-31 72-62 100-35 33-78 52-125 57-17 2-22 2-39 0z m913-72c53-9 92-43 105-93 5-15 4-58 0-74-17-61-73-98-142-95-70 4-120 49-127 116-8 65 28 123 88 141 22 7 52 9 76 5z m-853-2c55-14 91-55 97-112 2-13 2-20 1-32-8-68-58-113-129-116-71-2-124 33-141 95-4 16-4 59 0 74 8 31 29 59 55 75 15 9 31 15 59 20 9 1 46-1 58-4z m343 484c-5-1-15-5-23-9-14-6-16-8-30-23-16-18-38-45-66-81-11-14-30-38-42-54-12-16-22-29-22-30 0-1 132-97 136-98 1-1 13 14 30 38 16 21 46 60 66 87 20 28 37 50 37 50 1 1 22-15 48-34 26-19 72-53 103-75 30-23 55-41 56-41 1-2-7-15-16-26-16-20-45-40-76-52l-15-6-3 8c-4 12-8 20-16 26-12 11-11 11-124 11l-101 0-43 32c-25 19-55 41-67 51-13 9-24 17-24 17-1 0-4-3-6-7-3-3-12-16-21-27-9-11-19-25-23-31-8-10-17-27-17-31 0-2-6-3-51-3-29-1-75-1-104-1l-52 0-4-6c-8-11-10-15-10-30 0-13 1-16 5-23 2-5 6-11 8-14l4-4 41-1c68-2 113-10 155-29 40-19 75-52 92-89 17-37 25-83 21-134-1-15-2-31-3-36-1-5-2-9-2-10 2-1 213 3 228 4 82 7 130 22 160 50l11 10 4 18c9 41 28 86 49 115 12 19 38 44 56 56 38 27 95 44 146 44l11 0 7 15c14 28 19 48 19 72 0 57-38 91-141 128-66 23-72 25-73 24-1-1-1-6-1-10 0-4-1-11-2-16l-1-8-27 20c-151 110-213 154-220 157-20 9-47 11-67 6z m53 184c-38-3-59-11-77-28-14-14-28-40-35-62-4-15-3-41 1-56 5-17 16-37 19-36 2 0 9 3 17 6 48 19 90 11 138-27l13-10 21-3c12-1 23-2 24-2 3 0 3 2 3 34l0 35-5 1c-3 0-20 2-37 5-17 2-33 4-35 5l-5 0 0 27c0 24 0 27 3 27 2 0 65-10 75-11 4-1 4-1 4 3 0 7-4 21-9 31-15 30-45 50-88 59-8 2-17 3-18 3-2 0-6 0-9-1z" horiz-adv-x="1306" />

<glyph glyph-name="dining-area" unicode="&#xe80a;" d="M979 533l61 0c26 0 47 24 47 53 0 28-21 52-47 52l-790 0c-26 0-47-24-47-52 0-29 21-53 47-53l55 0-1-3c-4-30-64-623-64-635 0-40 43-60 67-31 7 8 11 17 12 27 1 8 16 151 33 319 17 167 32 311 32 319l1 4 514 0c3-33 17-165 33-320 20-200 35-332 38-338 2-5 9-13 14-17 26-20 60 2 60 38 0 11-60 606-64 634l-1 3z m-243-237c-5-2-13-9-17-15l-8-11 0-192c0-185 0-193 6-204 7-13 20-20 35-20 15 0 32 14 36 32 2 7 3 43 3 79l0 68 137 0-2 17c-1 9-3 29-5 44l-4 26-126 2 0 89 118 0-4 41c-2 22-5 42-5 45-2 6-152 5-164-1z m-352 1c0-3-3-23-5-45l-4-41 118 0 0-89-126-2-4-26c-2-15-4-35-5-44l-2-17 137 0 0-68c0-36 1-72 3-79 4-17 21-32 36-32 15 0 28 7 35 20 6 11 6 19 6 204l1 192-9 11c-14 19-19 20-103 20-59 0-77-1-78-4z m847 551c-7-3-20-18-23-27-11-31-42-184-55-272-9-59-19-156-22-211l-2-37-50 0c-27 0-50-1-51-3-1-1 1-21 3-44l5-43 45 0c53 0 48 6 50-52l1-37-85 0 0-9c0-5 1-25 3-45l4-35 44 0c24 0 44-1 44-2 0-6 16-87 23-111 10-41 14-50 26-59 19-15 48-6 57 18 6 15 5 22-5 59-9 35-18 83-25 137-7 48-9 225-5 287 10 132 31 265 62 396 7 28 10 48 9 55-2 12-11 27-21 33-6 4-24 5-32 2z m-1210-2c-10-6-19-21-21-33-1-7 3-30 11-62 43-183 63-350 63-515 0-116-10-209-33-297-10-40-11-45-5-61 9-23 38-32 57-17 12 9 16 18 26 59 7 24 23 105 23 111 0 1 20 2 44 2l44 0 4 35c2 20 3 40 3 45l0 9-85 0 1 37c2 58-3 52 50 52l45 0 5 43c2 23 4 43 3 44-1 2-24 3-51 3l-50 0-2 37c-7 129-32 299-64 431-12 54-14 59-25 70-9 11-32 15-43 7z m531-165l0 0-7 0 7 0z" horiz-adv-x="1306" />

<glyph glyph-name="beds" unicode="&#xe80b;" d="M1 139c-1-1-1-61-1-134l1-133 179-1 0 57c1 62 1 65 10 76 2 3 8 7 13 9l8 4 431 0c358 0 431 0 436-2 8-2 16-9 20-16 5-10 6-23 6-76l0-52 180 0 0 270-641 0c-512 0-642 0-642-2z m536 368c-276-9-423-53-491-147-28-39-42-87-45-153l-1-17 1284 0-1 20c-2 37-7 68-16 94-44 126-176 184-454 200-74 4-193 5-276 3z m-429 341c-19-6-37-20-46-36-10-18-10-8-10-199l0-174 11 8c25 19 66 41 100 53l17 6 0 55c1 65 1 64 17 79 18 18 48 28 103 35 26 3 133 4 168 2 84-5 129-22 144-51 4-8 4-9 4-39l1-30 50 0 1 29c0 35 2 40 14 52 18 20 49 30 107 37 32 4 160 4 193 0 67-8 104-23 117-49l4-9 1-110 17-6c36-13 80-37 102-55l8-7 0 175c0 192 1 182-9 199-10 16-24 27-43 34l-10 3-527 0c-422 0-529 0-534-2z" horiz-adv-x="1306" />

<glyph glyph-name="bicycle" unicode="&#xe80c;" d="M1284-94l-1284 0 0-55 1284 0 0 55z m-713 769c-10-3-18-8-27-14-5-4-23-26-61-74-29-37-55-71-57-74-3-4-7-11-9-17-8-21-6-42 4-60 10-15 17-20 97-70l75-46-1-179 4-7c6-15 15-22 30-26 14-4 28 0 40 11 9 8 14 18 16 31 3 18 14 199 12 206-2 9-8 20-15 28-4 4-29 23-56 43-26 20-48 37-48 38 0 1 59 76 60 76 1 0 10-10 21-23 11-12 23-25 26-28 10-9 13-10 74-20 32-5 58-10 58-10 1-1 17-59 18-61 0-1-27-1-60-1-42 1-58 0-58-1 0-1 2-9 5-18l5-16 79 0-89-90-1-16c-1-9-1-21-2-27l0-9 66 66c53 53 67 66 67 64 5-14 11-40 11-41-1 0-7-3-15-7-19-9-36-21-51-37-16-16-24-28-33-45-20-40-25-86-14-130 18-69 77-122 148-134 18-3 54-2 70 2 64 16 113 61 134 122 8 26 11 61 6 88-11 65-58 120-119 142-22 7-38 10-62 10-12-1-24-1-26-1l-4 0-20 72c-19 71-19 73-17 76 8 9 10 23 5 33-4 7-11 13-18 16-2 0-27 6-55 11-29 6-52 11-52 11 0 0-16 24-36 54-37 56-42 62-58 72-14 8-26 11-43 12-12 0-17 0-24-2z m-64-371l-25-25-10 8c-19 14-45 25-72 31-18 4-49 4-68 0-66-12-120-59-141-122-12-37-12-79 0-115 20-62 69-106 135-123 14-3 51-4 68-1 73 12 131 66 150 140 3 14 5 51 2 67-4 31-17 62-35 84l-5 7 27 27c15 15 27 27 27 28 0 0-5 4-11 8-7 4-13 8-15 9-2 1-5-1-27-23z m427-26c67-8 119-60 125-126 4-42-10-81-39-112-18-18-38-30-63-38-18-5-46-6-65-2-28 6-51 18-71 38-19 19-29 37-37 62-3 12-4 14-4 38 0 22 1 27 3 36 11 39 38 72 73 89 5 3 10 5 10 5 1 0 7-24 15-52 13-50 13-52 11-54-9-10-11-28-5-41 5-8 13-15 21-17 25-7 47 9 47 34 0 14-7 26-20 32-4 2-7 4-7 4 0 0-28 103-28 103 0 1 10 2 17 2 3 0 11 0 17-1z m-553 0c6-1 17-3 24-5 12-4 35-15 42-21l4-3-67-66-6 1c-10 3-26 2-35-3-10-5-17-14-22-23-5-10-5-30 0-40 16-35 66-38 85-4l4 7 45 0c25 0 46 0 47-1 2-1 2-2 0-10-5-27-18-50-38-70-21-22-43-34-72-40-18-4-47-3-65 3-32 9-59 28-78 55-55 81-13 192 82 217 17 4 32 5 50 3z m108-74c7-14 11-26 14-39l2-9-47 0c-26 0-48 0-48 1-1 0 14 16 32 34l33 33 4-4c2-2 6-9 10-16z m214 644c-18-5-31-13-45-27-14-14-20-24-26-42-3-9-3-13-3-29 0-17 1-20 4-29 9-28 28-48 53-60 16-7 24-9 43-9 12 0 17 1 26 3 33 10 57 33 68 66 3 9 4 12 4 30 0 15-1 21-3 27-10 32-33 57-65 68-15 5-41 6-56 2z" horiz-adv-x="1306" />

<glyph glyph-name="boat" unicode="&#xe80d;" d="M610 850l0-788-304 0c-347 0-311 6-299-45 19-75 82-135 167-158 31-8 63-8 467-8 404 0 437 0 468 8 84 23 147 83 166 158 12 51 48 45-298 45l-305 0 0 788-62 0z m-106-12c-154-55-326-242-432-472-29-64-62-169-68-221l-4-33 274 0c259 0 274 0 270 8-13 27-32 85-40 125-17 74-15 310 2 413 12 67 28 142 39 179 4 16 2 16-41 1z m231-490l0-236 549 0-273 236c-150 130-274 236-274 236-1 0-2-106-2-236z" horiz-adv-x="1306" />

<glyph glyph-name="bottles" unicode="&#xe80e;" d="M546 849c-7-1-14-4-17-9-3-3-3-5-3-27-1-23-1-24 2-26 1-2 4-3 6-3 5-1 5-1 2-18-5-32-14-66-23-89-14-32-28-52-66-86-7-7-15-14-17-16-2-2-4-3-4-3-1 0-20 16-29 26-27 29-45 63-54 107-4 23-6 39-4 39 1 0 3 2 5 3l4 2 0 22c0 23-1 26-6 30-8 6-4 5-90 6-83 0-89 0-96-4-8-5-9-8-9-32l0-22 4-2c3-2 5-3 6-3 2 0 2 2-3-30-7-37-16-63-28-85-10-18-26-36-54-63-37-34-54-55-64-83-8-22-8-19-8-185 0-196 1-316 3-327 2-10 5-17 13-28 11-15 30-27 54-35 17-6 33-9 54-11 16-1 157-3 232-3l33 0 13-9c16-11 19-13 34-18 23-8 45-12 75-14 17 0 193-2 250-2 35-1 55 2 77 10 21 7 42 21 53 34 3 3 3 3 9 2 14-1 35-1 118-2 121-1 148-1 161 0 39 5 69 20 86 43 13 15 16 27 18 52 1 10 1 117 1 237 0 195 0 220-2 232-5 33-18 59-43 83-5 5-17 16-26 24-22 19-32 29-41 39-23 26-35 51-46 93-2 7-7 41-7 45 0 1 1 2 4 2 7 2 8 5 7 27 0 19 0 21-3 25-4 5-9 8-17 9-8 1-153 1-162 0-8-1-16-6-18-12-1-2-2-10-2-24l0-21 4-2c3-2 5-3 6-3 3 0 2-2-2-26-11-57-25-91-51-119-9-11-28-29-29-29-1 0-27 22-41 34-41 38-62 75-76 132-2 13-6 37-6 43 0 4 0 4 3 5 2 0 4 1 6 3 2 2 3 3 3 24 0 13-1 24-2 26-1 4-8 9-13 11-4 2-12 2-92 2-51 0-89 0-92-1z m162-66c0-1 1-8 2-16 8-62 28-110 61-147 12-14 24-25 50-47 26-23 39-37 49-54 14-25 20-53 20-96l0-21-212 0c-117 1-230 1-251 1l-39 0 1 33c1 34 1 39 8 56 5 13 11 24 18 34 6 9 18 23 23 28 6 6 13 12 26 25 8 6 14 13 16 14 1 1 4 4 6 7 31 29 47 58 61 106 6 17 16 68 16 76 0 1 16 1 73 1 39 0 72 0 72 0z m387-43c0-13 8-53 15-72 15-44 34-69 81-110 25-22 36-32 44-43 18-26 25-53 25-96l1-21-170 1c-93 0-170 0-173 0l-4 1 0 26c0 41-4 63-17 90-3 8-16 27-23 34l-4 4 10 10c40 37 54 59 69 106 4 11 10 40 13 59 2 8 3 15 3 15 0 0 98 1 115 1l15-1 0-4z m-781-1c0-14 5-42 13-66 13-40 33-70 67-101 6-5 12-10 14-12l3-4-7-9c-16-19-23-31-30-50-8-20-10-37-10-72l0-27-154 1c-85 0-161 0-170 0l-17 0 1 29c1 30 2 37 10 56 4 11 15 29 24 39 7 7 24 25 34 35 40 36 57 59 70 95 8 21 16 56 20 79l1 12 131 0 0-5z m49-358c0 0 1-69 2-153l1-153-170 1c-94 0-170 0-170 1-1 0-1 68-2 153l-1 152 170 0c93 0 170-1 170-1z m855 0l43 0-1-152c0-85-1-153-1-154 0 0-204 0-294 1l-51 0 0 306 130 0c72 0 150-1 174-1z m-853-322c0 0 0-28 0-61 1-56 1-61 4-69 1-4 4-11 5-13l3-6-16 0c-54 1-232 3-239 4-45 5-75 20-88 42-8 13-8 14-9 60l0 43 170 0c93 0 170 0 170 0z m894-37c0-40-1-48-6-61-10-24-31-39-65-47-17-4-24-4-155-2-67 0-124 1-126 2l-3 0 2 6c6 14 6 22 7 82l0 57 346 0 0-37z m-435 9l65 0 0-45c-1-42-1-46-4-54-8-24-22-40-47-52-8-4-26-9-39-11-11-2-39-2-196 0-103 1-110 1-135 7-40 9-63 26-74 52-3 7-3 9-4 55l0 49 127 0c70 0 153 0 184 0 32-1 87-1 123-1z" horiz-adv-x="1306" />

<glyph glyph-name="excursion" unicode="&#xe80f;" d="M225 848c-42-8-73-31-87-62-4-10-5-14-6-35l0-24-8-8c-11-13-24-23-41-32-17-10-41-29-52-41-10-12-21-31-25-41-5-17-6-29-6-80l0-50 5-8c7-11 18-16 34-16 15 0 26 6 33 16l5 8 0 56c0 61 1 65 11 80 7 10 20 22 27 25 6 2 11 1 14-3 2-2 3-118 3-337l1-334 5-8c6-9 15-16 29-21 9-3 13-3 39-4l29-1 0-25c0-37 2-42 17-49 7-3 10-3 46-3 43-1 48 0 56 10 4 6 5 7 6 37 0 17 1 31 2 31l559 0 0-28c0-36 2-41 19-48 6-2 11-2 44-2 43 0 48 1 57 11 4 5 4 6 5 36l1 31 23 0c28 1 40 3 52 12 5 3 10 9 13 13l5 7 1 327 1 327 6 9c8 12 13 15 22 11 8-3 19-14 26-24 11-15 11-19 11-80l0-56 5-8c11-15 34-21 53-12 7 3 10 6 14 12l5 8 0 50c0 51-1 67-8 85-10 26-40 56-74 76-19 11-32 21-43 34-15 19-18 24-18 36 0 36-26 69-67 85-27 10 14 9-433 9-379 0-404 0-416-2z m630-34c12-3 13-6 13-31 0-25-1-28-13-31-4-1-81-1-217-1-234 0-221-1-226 9-3 4-3 10-3 26 1 22 2 25 14 27 7 2 424 2 432 1z m28-103c69-2 96-4 124-9 57-9 82-19 95-38l5-8 1-167c0-125 0-170-2-176-7-24-32-44-71-54-19-4-75-15-104-19-42-6-58-7-153-15-86-7-94-8-141-8-48 0-56 1-143 8-98 8-124 11-168 17-30 5-77 14-93 19-29 7-51 21-59 36l-4 9-1 176c0 97 0 179 1 182 2 7 15 17 31 23 19 7 54 14 83 17 46 6 144 8 355 8 109 0 219 0 244-1z m-655-532c27-4 69-17 95-29 21-9 51-27 61-36 10-8 13-16 12-30-1-11-4-14-14-18-7-2-64-2-99 0-41 3-73 10-96 21-17 9-18 12-18 49 0 35 0 36 12 40 13 5 27 6 47 3z m855 0c12-2 22-6 24-9 1-1 1-17 1-35 0-30 0-33-4-38-7-8-28-18-55-24-25-6-47-8-102-8-46 0-51 0-56 3-7 3-10 10-9 21 0 14 6 22 24 34 33 22 71 39 113 49 32 9 47 10 64 7z m-221-152l6-4 0-46-6-4-5-4-435 0-6 4-6 4-1 20c0 22 1 29 9 32 4 2 34 2 222 2l217 0 5-4z" horiz-adv-x="1306" />

<glyph glyph-name="gate" unicode="&#xe810;" d="M131 845c-24-6-36-15-42-33-5-13-6-14-26-14-20 0-20 1-20 13-1 14-8 21-22 21-18 0-21-7-21-51 0-43 3-50 21-50 15 0 22 7 22 21 0 12 0 13 21 13l21 0 0-832-21 0c-21 0-21 0-21 13 0 18-21 27-36 15-5-5-7-14-7-47 0-37 1-41 10-46 15-8 29 0 33 17 2 12 3 13 21 14 17 1 19 0 25-12 11-25-22-23 557-23l526 0 13 12c8 7 14 15 14 18 0 5 4 6 20 5 19-1 20-2 23-14 3-17 18-25 32-17 9 5 10 9 10 46 0 33-1 42-7 47-15 12-35 4-35-15 0-12 0-13-22-13l-21 0 0 832 21 0c22 0 22 0 22-13 0-14 7-21 22-21 16 0 20 11 20 53 0 41-3 48-21 48-14 0-21-7-21-21 0-13-1-13-21-13-20 0-21 1-26 15-7 17-23 29-48 34-12 2-63 4-133 3-126-1-131-2-142-24l-5-12-450 0-6 12c-10 22-14 23-144 23-90 1-122 0-136-4z m237-34c0-1-8-15-18-31-14-22-22-30-31-32-6-1-52-2-101-2l-90 0 0 27c1 34 5 40 26 40 15 0 16-1 16-11 0-6 4-13 9-17 8-6 12-6 22-2 9 3 12 6 12 16 0 8 0 14 1 15 3 2 154-1 154-3z m704-11c0-10 2-14 12-17 9-4 13-3 21 2 5 4 9 11 9 17 0 10 2 11 16 11 22 0 26-6 25-39l-1-26-90-1c-49-1-94-1-100 1-7 1-16 10-29 31-11 17-19 31-19 32 0 2 124 5 143 3 11-1 13-3 13-14z m-642-20l0-813-85 0 0 12c0 7-1 175-1 375l0 362 12 8c6 3 18 18 27 31 15 23 17 24 31 24l16 1z m127 0l0-813-85 0 0 813 85 0z m128 0l0-813-85 0 0 813 85 0z m127 0l0-813-85 0 0 813 85 0z m85-20c6-11 19-25 27-32l16-12 0-749-85 0 0 813 15 0c14 0 17-2 27-20z m-727-48l0-813-42 0 0 813 42 0z m128 0l0-745-85 0 0 745 85 0z m774 0l0-745-43 0c-25 0-42 1-42 4 0 2-1 153-1 337 0 183 1 349 1 369l0 35 85 0z m85 0l0-813-43 0 0 813 43 0z m-88-788c4-11-2-25-11-25-4 0-195 0-424 0l-417-1 0 35 849 0 3-9z" horiz-adv-x="1306" />

<glyph glyph-name="hairdryer" unicode="&#xe811;" d="M1038 387c-14-4-14-5-1-60 17-67 15-175-3-278l-16-86 18-28c15-23 18-34 15-56-2-16-3-28-1-28 15 0 52 26 59 42 15 31 13 51-10 72-22 22-23 23-10 74 20 80 18 207-4 316-7 38-12 41-47 32z m-169 6c1-3 13-30 28-60 23-48 26-62 29-116 1-33-3-109-9-168-15-153-4-184 71-194 29-4 36-3 43 7 13 19 10 44-8 67-20 25-20 41-3 130 18 88 19 203 2 273l-12 49-60 5c-33 3-65 7-71 9-7 1-12 0-10-2z m-10-58c-14-9-15-22 0-65 13-38 28-51 47-40 15 8 13 22-11 80-14 34-17 36-36 25z m124 484c19-124 22-239 7-346-5-38-10-71-10-73 0-2 19-1 41 2 45 5 106 24 160 49l36 18 5 46c6 63 0 235-9 253-12 23-118 63-206 77l-29 5 5-31z m-70 25c-9-2-70-16-137-31-161-37-268-55-357-60l-74-5 4-21c6-30 6-162 0-202l-5-33 88-4c95-4 165-16 358-61 134-30 166-34 172-18 19 53 22 343 4 410-8 31-11 33-53 25z m-913-220c0-132 2-183 7-183 4 0 44 7 88 15 59 11 95 13 133 10 73-6 91 0 102 35 10 32 14 172 5 223-8 51-13 54-100 54-65 0-163 11-220 25l-15 4 0-183z m1243 35c2-57 0-118-3-138-8-46 4-44 26 3 28 62 23 171-11 216l-15 20 3-101z m-1024 47c68-49 67-115-1-166-9-7-23-15-33-17-12-4-10-1 7 9 30 17 39 28 50 61 12 39 3 72-31 103-31 29-27 35 8 10z m692 61c9-24-24-42-91-51-90-11-209-21-307-25l-86-4 83 14c98 16 235 45 304 63 65 17 92 18 97 3z m176-9c26-11 57-24 68-28 18-7 17-7-13-4-85 10-124 25-113 45 6 9 3 10 58-13z" horiz-adv-x="1306" />

<glyph glyph-name="invilladining" unicode="&#xe812;" d="M31-43c-20-9-29-22-31-45-1-22 3-35 14-46 19-17-38-16 632-15l601 1 12 6c7 5 14 11 18 19 7 12 8 15 7 32-2 26-10 38-31 48l-14 6-1194 0-14-6z m590 744c-33-8-58-34-62-63-2-24 13-52 37-67l12-8 0-35-20-1c-106-8-203-37-289-87-162-92-264-250-271-416l-1-18 65 1c36 0 310 0 608 0l543 0-1 29c-12 222-204 420-458 475-34 7-89 15-109 15-1 0-2 8-2 19l0 18 14 8c25 15 41 43 38 67-3 25-24 50-50 60-15 5-39 7-54 3z m9-222c-95-14-177-45-255-96-60-39-116-97-153-158-28-46-51-108-58-157l-3-23-40 0-40 0 1 11c3 24 12 62 20 85 58 175 239 311 449 338 36 5 42 5 82 6l34 0-37-6z m-441 242c-2-25-9-48-20-69-13-25-21-52-21-74-1-21 3-33 13-43 5-6 23-16 28-16 1 0 1 6 1 12 0 18 9 44 27 78 18 35 22 48 20 66-3 22-20 49-39 61l-7 4-2-19z m878 14c-18-11-33-37-35-61-2-20 2-32 21-69 16-29 22-46 24-70l2-16 9 4c12 5 21 14 27 25 12 22 5 65-16 104-12 22-18 42-20 69l-2 20-10-6z m-403-70c27-13 30-46 7-63-8-5-11-6-30-6-21 0-22 0-30 7-13 13-17 30-10 45 10 20 40 28 63 17z m-287 177c-1-4-1-11-1-16 0-15-10-45-21-67-14-28-21-51-21-74 0-21 4-32 15-42 6-6 24-15 28-15 0 0 1 8 2 19 2 22 5 32 26 73 18 35 22 52 18 69-5 24-19 45-37 55l-7 5-2-7z m504-2c-15-12-26-30-30-49-5-19-1-36 14-65 20-37 28-59 30-79l1-19 8 2c4 2 12 7 18 11 24 22 23 62-3 116-12 24-20 50-23 76l-2 17-13-10z" horiz-adv-x="1306" />

<glyph glyph-name="fishing-trip" unicode="&#xe813;" d="M1249-126l0 121-151 0 0 450-31 0 0-450-151 0c-171 0-153 3-147-26 9-43 40-77 82-90 15-5 31-5 231-5 83 0 135 0 167 0z m-773 687c-8-4-40-8-85-10l-12-1-53-47c-152-133-183-161-194-172l-6-7-1-7c-2-19-3-363-2-394 1-15 1-16 5-23 6-12 19-22 33-25 16-3 31 1 43 14 10 10 12 14 13 30 1 6 1 82 1 166l0 155 19 0 0-142c1-77 1-152 1-166l1-24 3-6c3-7 11-15 18-20 14-9 31-10 46-3 8 4 20 14 22 19 6 12 6 37 6 327 0 231 0 268 2 270 0 0 4-1 8-1 34-7 115-5 127 2 3 1 3 3 5 10 3 10 7 42 8 50 0 6 0 7-3 7-1 0-3-1-5-2z m132 211c-11-8-45-36-243-204-196-166-227-192-230-190-2 1-1 3 2 8 5 6 8 14 8 20 1 6 0 9-5 12-3 2-4 3-11 2-6 0-9-1-15-4-19-9-34-33-28-45 3-8 16-9 30-3 6 3 8 4 9 3 4-2 3-4-5-10-14-13-16-14-25-14-4 0-8-1-9-1-2-2-1-9 3-22 4-12 9-25 10-27 1 0 16 14 17 17 1 2 2 6 2 10l0 6 38 34c458 403 447 394 450 395 2 1 2 0 5-7 6-11 15-36 24-61 57-160 75-325 50-474-8-44-20-91-35-130-22-58-55-121-86-164-17-22-28-33-34-33-7 0-15 6-18 12-3 7-5 5-5-2 0-5 2-9 7-14 4-4 8-6 11-6 5 0 16 3 21 5 5 2 5 3 9 9 1 4 8 15 15 24 15 22 27 40 38 60 88 153 116 331 83 532-13 77-34 152-66 232-5 12-9 24-9 27-1 5-2 6-8 3z m-19-71c-1-2-6-10-11-18-14-29-27-45-37-50-4-2-6-2-14-2-12 0-15 1-27 11l-8 7-7-5c-4-3-9-8-12-10-4-5-4-5-4-10 0-3 3-12 9-26 14-33 13-33 13-41 0-25-24-139-35-172-5-15-9-20-20-31-13-12-24-19-38-21-8-1-16 0-26 4-4 2-8 3-8 3-1-1 7-28 14-46 5-14 11-25 27-50 8-11 15-23 16-26 3-7 6-19 13-53 9-51 18-86 28-120 9-31 14-42 36-78 23-39 31-50 37-49 7 1 17 27 28 74 6 21 12 53 13 61 1 13 0 11 18 30 18 19 35 38 41 49 3 4 4 8 4 8 0 0-3-1-6-1-11-3-27-1-40 5l-7 3 1 44c1 50 2 68 4 71 1 1 6 5 11 9 21 13 23 15 30 22 11 11 20 26 23 40l1 4-19-4c-15-2-43-3-48-1-3 2-5 6-7 23-2 18-1 39 2 50 3 9 9 23 15 31 5 9 8 14 9 20 1 7 1 18 0 18 0 0-5-1-10-3-10-3-20-4-26-1-5 2-10 6-12 10-2 3-4 18-5 32-1 18 2 29 19 76 16 43 21 68 20 98-1 17-1 19-5 15z m-66-681c2-1 4-3 6-5 8-9 6-23-5-30-5-3-8-2-14 2-5 5-6 9-5 17 1 13 9 21 18 16z m492 418c-77-31-162-138-214-270-15-36-31-96-34-126l-2-19 136 0c128 0 135 1 133 5-6 15-16 49-20 72-8 42-7 177 2 235 5 39 13 82 18 103 3 9 2 9-19 0z m234-415l0 151c-67 67-119 119-120 119 0 0 0-61 0-135l0-135 120 0z m-1099 543c-11-1-13-1-20-4-20-9-44-25-63-45-31-31-50-68-56-110-1-11-1-43 0-54 4-31 15-66 29-96 5-12 10-17 17-21 4-2 6-3 13-3 7 0 10 1 13 2 10 5 17 14 18 25 1 7-1 15-9 35-13 31-16 44-17 69-2 20-1 40 3 52 2 10 11 29 19 39 3 5 10 13 16 19l9 9 1-55 6 0c6 0 8 0 13-3 7-3 9-6 10-16 1-3 2-7 2-8 1-2 13 9 165 138 11 10 21 18 21 19 0 1-7 3-19 6-7 2-9 2-83 2-42 1-81 0-88 0z m-139-286c-14-12-14-21-4-33 8-7 10-9 18-8 4 0 8 1 9 2 3 2 3 2-4 21-8 19-11 25-12 25 0 0-3-3-7-7z m569 302c-2-7-17-48-17-49 0-1 8 4 14 10 9 8 12 15 12 25 0 6 0 8-2 12-2 2-3 5-4 5-1 0-2-1-3-3z m-364 186c-15-3-25-6-37-14-17-12-31-31-37-52-2-11-3-30 0-40 5-21 17-39 35-52 7-5 23-13 30-14 7-2 36-2 43 0 13 4 30 13 40 24 11 11 19 24 23 40 3 11 3 31 0 42-9 33-34 57-67 65-11 2-21 3-30 1z m247-84c0-10 1-19 1-19 1-2 1-2 3 0 4 2 11 9 11 10 0 1-14 28-14 28-1 0-1-9-1-19z m-250 165c-13-4-23-11-29-22-2-4-4-7-4-7-1 0-8-1-16-3-49-9-81-22-100-42-8-9-11-15-11-25 0-6 1-8 3-13 4-8 10-15 20-22 11-8 18-12 34-18 16-6 20-7 22-5 1 1 2 6 3 10 6 30 30 57 59 68 12 4 21 5 34 5 18 0 35-4 51-13 21-14 37-37 43-65 1-7 2-8 3-7 1 0 9 3 17 6 17 6 22 9 33 16 21 14 30 28 27 43-3 17-21 33-48 45-16 7-44 14-65 18-14 2-14 2-17 9-5 10-15 17-31 21-8 2-21 3-28 1z" horiz-adv-x="1270" />

<glyph glyph-name="events" unicode="&#xe814;" d="M711 662c-20-5-37-18-45-37-4-9-5-15-5-33l0-17-20 0c-10 0-22 0-25-1-22-3-41-12-56-25-15-14-23-28-29-47l-1-7-1-278c0-195 0-280 1-285 4-28 21-54 48-69 8-4 16-7 27-10l8-2 296 0c284 0 296 0 302 1 30 7 55 25 69 51 4 7 7 16 9 25 1 8 1 561-1 569-3 19-12 35-25 48-9 9-17 14-28 20-17 8-29 10-55 10l-15 0 0 17c0 14 0 19-2 24-4 15-12 27-25 36-36 25-86 6-97-37 0-3-1-11-1-22l0-18-64 0 0 16c0 12-1 18-1 23-4 13-9 23-19 32-28 26-73 21-95-11-8-12-11-22-11-44l0-16-63 0-1 18c0 21-1 27-7 38-8 14-21 24-37 29-8 3-22 4-31 2z m-606-21c-14-3-31-14-45-27-26-27-43-65-54-125-12-58-8-74 28-117 10-11 20-24 23-27l5-7 52 42-7 9c-3 4-13 16-22 26-8 10-16 21-17 23-4 9 8 70 20 98 8 19 10 22 15 19 4-2 4-2-1-12-3-6-9-19-12-29-5-17-6-20-6-51l0-32 12-14c6-7 14-17 18-22 5-8 7-9 10-7 3 2 4 2 6 0 3-3 0-7-41-39l-44-36 4-14c7-25 24-59 32-66 3-3 3-21 3-169 0-185 0-179 13-195 15-18 40-23 61-13 11 5 18 12 25 25l4 8 1 405 19-2 30-70c18-41 29-71 28-73 0-1-16-22-34-45l-34-43-1-89c-1-88-1-89-5-97-3-5-8-12-13-16l-8-8 8 1c11 2 20 7 28 15 11 11 14 20 15 41l1 19 74 94c40 52 75 98 77 102 3 5 4 13 4 20 0 11-2 18-34 90l-33 79 0 163-7 7c-4 4-8 10-11 13-3 6-6 8-16 10-12 4-19 10-19 18 0 3 7 30 16 61 9 31 15 56 15 57-2 2-174 2-183 0z m1126-206c0 0 0-112 0-249 0-232 0-249-1-253-1-2-2-5-4-7-2-5-10-12-16-15-11-6 13-5-300-5-190 0-286 0-289 0-11 3-23 11-28 20-6 10-6-7-6 263l0 247 322 0c177 0 322-1 322-1z m-160-342l0-91 108 0 0 91-108 0z m-431 0l0-91 108 0 0 91-108 0z m288 0l0-91 107 0 0 91-107 0z m-144 0l0-91 107 0 0 91-107 0z m-144 122l0-91 108 0 0 91-108 0z m288 0l0-91 107 0 0 91-107 0z m-144 0l0-91 107 0 0 91-107 0z m287-44c0-24 0-45 0-46 1-1 4-1 54-1l54 0 0 91-108 0 0-44z m-431 166l0-91 108 0 0 91-108 0z m288 0l0-91 107 0 0 91-107 0z m-144 0l0-91 107 0 0 91-107 0z m287-2c0 0 0-21 0-45l0-44 108 0 0 91-54 0c-51 0-53 0-54-2z m-708 250c-1-4-3-13-5-21-3-10-4-13-2-14 2-1 12-11 24-22 19-18 20-20 18-23-3-4-4-2-28 19-26 24-34 29-47 26-9-2-18-9-23-17-4-8-5-23-1-31 2-3 21-22 42-42 42-39 46-42 62-40 11 2 24 15 26 26 3 15-8 52-27 91-11 23-31 55-35 55-1 0-2-3-4-7z m561 42c9-4 15-12 16-24 1-4 1-31 1-62-1-54-1-54-3-59-8-21-37-23-48-3l-4 5 0 62c0 60 0 61 2 66 2 5 8 12 13 15 7 3 15 3 23 0z m-190 0c6-2 11-8 14-13l3-5 0-124-3-5c-2-5-8-11-13-13-6-3-17-3-22 0-9 4-14 12-16 21-1 4-1 23-1 63 1 63 0 60 7 68 7 9 20 13 31 8z m377 1c7-2 13-8 17-15l2-4 0-123-3-5c-3-6-7-11-13-14-4-2-6-2-11-2-6 0-8 0-12 2-6 3-10 8-13 13l-3 5 0 124 3 4c6 13 19 19 33 15z m-810 15c-1-1-10-29-19-61-18-62-18-63-8-66 13-5 13-5 13 3 0 9 5 22 13 29 9 8 19 11 33 11l13-1 10 33c9 32 10 34 6 37-3 3-49 17-56 17-1 0-4-1-5-2z m52-19c3-3 1-8-3-8-5 0-7 3-4 7 3 3 4 4 7 1z m-30 5c14-4 20-7 15-7-5 0-32 8-32 10 0 2 1 2 17-3z m-149 217c-32-10-55-35-63-68-13-47 19-99 67-112 33-8 65 0 90 25 43 43 35 112-17 145-21 14-53 18-77 10z" horiz-adv-x="1306" />

<glyph glyph-name="hammock" unicode="&#xe815;" d="M119 847c-11-4-15-12-15-23 0-4 1-10 2-12 0-3 1-7 1-9 0-3 1-5 1-5 1-1 2-4 2-7 0-2 0-5 1-5 1 0 2-3 2-7 1-3 1-9 2-13 0-4 1-7 2-7 1 0 1-1 1-3 0-4 4-25 6-31 1-2 2-6 2-8 0-2 0-5 1-5 2-1 2-7 0-10-1-1-2-4-3-6-4-10-5-12-7-16-1-2-2-5-3-6-1-2-1-4-1-6 0-1-1-2-2-2 0 0-1-1-1-3 0-1-1-3-2-3 0-1-1-2-1-4 0-1-1-2-1-2-1 0-2-1-2-2 0-1-1-6-3-10-2-4-4-8-4-9 0-1-1-2-1-2-1 0-2-1-2-3 0-1-1-3-1-3-1 0-2-2-2-3 0-2 0-3-1-3-1 0-2-2-2-4-1-2-2-6-4-10-1-3-3-6-3-7 0-1 0-2-1-2-1 0-1-1-1-3 0-2-1-3-2-3-1 0-1-2-1-3 0-1-1-3-2-3-1-1-1-2-1-3 0-1-2-6-4-10-2-4-4-9-5-11-1-2-2-4-3-5-1-2-1-4-1-5 0-1-1-2-2-2 0 0-1-1-1-2 0-2 0-3-1-4-1 0-2-4-4-8-2-5-3-8-4-8 0 0-1-2-1-4 0-2 0-3-1-3-1 0-2-1-2-3 0-1 0-3-1-3-1-1-2-4-3-6-1-3-3-8-5-12-2-4-4-8-4-9 0-1 0-2-1-2-1 0-1-1-1-2 0-1-1-3-2-4-3-5-8-20-8-22 0-1-1-1-2-1-1 0-1-2-1-3 0-1-1-3-2-3-1-1-1-2-1-4 0-1-1-2-1-2-1 0-2-1-2-2 0-2-5-15-9-20-1-3-2-19 0-20 1-1 2-3 2-6 1-7 7-24 9-24 0-1 1-2 1-4 0-2 1-4 1-4 1 0 2-2 2-3 0-2 0-4 1-5 1-2 2-5 4-9 1-3 3-7 3-8 1-1 2-3 2-4 0-2 0-2 1-2 1 0 2-2 2-4 0-2 0-3 1-3 1 0 1-1 1-2 0-1 3-6 5-12 3-6 5-11 5-12 0-1 1-2 2-2 1 0 1-1 1-3 0-1 1-3 2-3 1 0 1 0 1-1 0-2 11-22 12-22 0-1 1-2 1-3 0-2 0-3 1-3 1 0 2-2 3-4 1-3 3-5 3-5 0-1 3-5 5-9 2-5 5-9 5-9 1 0 2-1 2-2 0-1 0-2 1-2 1 0 1-1 1-2 0-2 1-3 1-3 1 0 3-3 4-6 2-3 4-6 4-6 0 0 2-2 3-4 1-2 2-4 3-4 0 0 1-1 1-1 0-1 3-6 6-11 4-5 7-10 7-10 0-1 1-2 3-4 1-1 2-3 3-4 0-1 0-2 1-2 1 0 2-1 2-3 0-1 3-4 5-7 2-2 4-5 4-6 0-1 1-1 2-1 1 0 1-1 1-2 0-1 1-2 2-3 3-4 11-14 11-15 0 0 2-2 4-4 2-2 3-4 3-4 0-1 2-3 4-6 3-3 5-5 5-6 0 0 1-2 2-3 2-1 5-5 7-8 5-5 7-8 12-14 2-1 5-5 7-8 2-2 5-6 7-7 1-2 3-4 5-6 1-1 5-6 9-10 4-5 9-10 12-13 19-21 56-56 65-61 3-1 6-4 8-6 2-2 4-4 5-4 1 0 2 0 2-1 0 0 3-3 7-5 4-2 7-4 7-5 0 0 1-1 2-1 2 0 2 0 2-1 0-1 1-2 3-2 1 0 2 0 2-1 0-1 1-1 2-1 1 0 2-1 2-1 0-1 4-3 8-5 4-2 8-5 8-5 0-1 1-1 3-1 1 0 2-1 2-1 0-1 2-2 5-3 3-1 5-2 5-3 1 0 9-4 20-9 10-5 19-9 21-10 1 0 3-1 4-1 2 0 2 0 2-1 0-1 2-2 3-2 2 0 3 0 3-1 0-1 2-1 4-1 1 0 3-1 3-1 1-2 13-6 21-8 4-1 6-2 6-2 0-1 2-1 5-1 2 0 4-1 4-2 0 0 2-1 3-1 2 0 4-1 5-1 0-1 2-2 4-2 2 0 4 0 4-1 1 0 7-2 13-3 6-2 13-3 14-4 1 0 4-1 7-1 2 0 4-1 4-1 0-1 3-2 6-2 4 0 7 0 8-1 0-1 4-1 7-2 3 0 12-1 19-3 62-9 141-9 204 0 7 2 16 3 19 3 3 1 6 1 6 2 0 1 4 1 7 1 3 0 7 1 7 2 1 0 3 1 6 1 3 0 5 1 5 1 0 1 1 2 3 2 3 0 17 3 22 5 1 1 5 2 8 3 3 1 7 2 7 3 1 0 3 1 4 1 2 0 4 0 5 1 6 3 21 8 23 8 1 0 2 1 2 1 0 1 1 2 3 2 1 0 3 0 3 1 0 1 1 1 2 1 1 0 22 10 23 11 1 1 3 2 6 3 2 1 4 2 4 3 0 0 1 1 3 1 2 0 3 0 3 1 0 0 3 3 8 5 4 2 8 4 8 5 0 0 1 1 2 1 2 0 3 0 4 1 0 1 6 5 12 9 12 7 17 11 21 15 1 1 2 2 3 2 0 0 3 2 6 4 2 3 5 5 6 5 2 0 57 52 57 54 0 0 1 2 3 4 2 1 5 5 8 8 2 3 5 7 6 8 2 1 3 3 3 3 0 1 0 2 1 2 0 0 4 4 7 8 3 4 6 8 6 8 1 0 2 1 2 1 0 1 1 3 2 5 2 1 3 3 3 4 0 1 1 2 2 2 0 0 1 1 2 3 1 2 2 4 4 5 1 1 2 3 2 4 0 2 1 3 2 3 1 0 1 0 1 1 0 1 1 2 2 3 2 3 11 17 11 19 0 0 0 1 1 1 1 0 2 1 2 2 0 2 0 3 1 3 1 0 2 1 2 2 0 1 0 2 1 2 0 0 3 4 5 9 2 4 5 8 5 8 1 0 1 2 1 3 0 2 1 3 2 3 1 0 1 1 1 3 0 1 1 2 2 2 1 0 1 1 1 2 0 1 4 10 9 19 1 1 1 3 1 4 0 1 1 2 2 2 0 0 1 1 1 3 0 1 1 2 1 2 1 0 2 1 2 2 0 1 1 5 3 8 2 4 4 8 4 9 0 2 1 3 1 3 1 0 2 1 2 3 0 2 1 3 1 3 1 0 2 2 2 4 0 1 0 3 1 4 1 0 1 2 1 3 1 1 1 3 2 3 0 0 2 4 4 9 1 5 3 10 3 10 1 1 1 2 1 4 0 2 1 3 2 3 1 0 1 2 1 4 0 2 1 3 2 3 1 0 1 2 1 4 0 2 1 4 2 4 0 0 1 1 1 2 0 3 7 24 9 28 1 1 1 4 1 6 0 3 1 4 2 4 0 0 1 2 1 4 0 1 1 4 1 5 2 4 6 17 6 21 0 2 1 4 1 4 1 1 2 3 2 6 0 2 0 4 1 4 1 0 2 3 2 5 2 10 3 15 4 17 1 2 2 5 2 7 1 2 2 8 3 13 1 6 2 12 3 15 0 3 1 7 2 8 1 3 2 9 4 20 0 3 1 7 2 8 0 2 1 6 2 9 0 3 1 9 2 13 1 4 2 13 3 20 1 6 2 14 3 16 1 3 1 9 1 14 0 7 0 9-4 15-2 4-5 8-5 9-1 2-2 3-2 3-1 0-2 0-2 1 0 1-1 3-2 5-2 1-4 5-5 7-2 3-4 6-6 8-1 1-2 3-2 4 0 1-1 1-2 1-1 0-1 1-1 2 0 2-1 3-2 4-3 3-8 12-8 13 0 1-1 1-2 1 0 0-1 1-1 2 0 0-2 4-4 7-3 3-5 7-5 7 0 1 0 2-1 2-1 0-2 2-4 5-1 3-3 5-4 5 0 0-1 1-1 2 0 2 0 2-1 2-1 0-2 1-2 2 0 0-2 4-5 8-2 4-5 8-5 8 0 1-1 2-2 4-2 1-4 4-5 6-1 2-3 6-5 8-2 2-3 5-3 6 0 1-1 1-2 1 0 0-1 1-1 2 0 1-1 2-1 2-1 0-2 1-2 3 0 1 0 3-1 3-2 0-12 15-12 17 0 1 0 1-1 1-1 0-2 1-2 2 0 1 0 2-1 2-1 0-1 1-1 2 0 1-1 2-2 2 0 0-2 3-4 6-2 4-4 7-5 8-2 2-2 3-1 3 1 1 2 3 2 6 0 3 2 11 5 19 2 8 4 16 4 19 1 3 1 5 2 6 1 0 1 2 1 5 0 2 1 4 2 4 1 0 1 2 1 4 0 3 1 6 2 7 4 12 6 27 2 34-3 6-6 8-14 12-9 3-12 3-21-1-9-5-14-11-15-22-1-4-2-7-2-7-1 0-2-2-2-4 0-3 0-5-1-5-1 0-1-2-1-5 0-3-1-6-2-6-1-1-1-3-1-5 0-2-1-4-2-5-1-1-1-2-4-19-1-5-2-10-3-10-1 0-1-1-1-4 0-2-1-4-2-4 0-1-1-3-1-5 0-3-2-4-8-8-4-3-8-5-9-5-1 0-2-1-2-1 0-1-4-4-9-7-4-3-9-5-9-6 0-1-1-1-2-1-2 0-3-1-3-1 0-1 0-2-1-2-1 0-4-1-5-2-3-3-14-10-16-10 0 0-2-1-4-2-1-2-3-3-4-3-1 0-2-1-2-1 0-1-2-2-3-2-1-1-4-2-5-3-2-2-5-4-7-5-2 0-5-3-7-4-2-2-6-4-8-5-3-1-4-2-4-3 0-1-1-1-3-1-1 0-2-1-2-1 0-1-2-2-4-3-2-1-4-2-4-3-1 0-5-3-10-6-5-3-9-6-9-6 0-1-1-1-2-1-1 0-2-1-2-1 0-1-1-2-2-2-1 0-4-1-6-3-3-2-5-4-6-4 0 0-2-1-4-2-1-2-4-3-5-3 0 0-1 0-1-1 0 0-5-3-10-6-5-3-9-6-9-7 0 0-1-1-2-1-1 0-2 0-2-1 0-1-1-1-2-1-1 0-4-2-6-4-3-1-5-3-6-3 0 0-2-1-4-3-1-1-4-2-5-2-1 0-1-1-1-1 0-1-2-2-5-3-2-1-4-3-4-3 0-1-1-2-3-2-2-1-4-2-6-4-1-1-2-2-3-2-1 0-18-11-22-13-1-1-2-2-3-2-1 0-1 0-1-1 0 0-2-2-4-3-3-1-5-2-5-2 0-1-5-4-10-6-5-3-9-6-9-7 0 0 0-1-2-1-1 0-2 0-2-1 0-1-2-2-4-3-4-1-11-7-15-12-3-3-4-9-5-25-1-14-2-20-7-48-1-7-2-16-3-19 0-3-1-7-2-7 0-1-1-4-1-7 0-4 0-6-1-6-1 0-2-2-2-5-1-7-3-15-6-25-2-5-3-10-3-13-1-2-2-4-2-5-1 0-2-2-2-4 0-3 0-4-1-4-1 0-1-2-1-4 0-2-1-4-2-4-1 0-1-1-1-2 0-4-6-19-9-25-1-2-1-4-1-5 0-2-1-3-2-4-1 0-1-2-1-3 0-2-1-3-2-3 0 0-1-1-1-2 0-2-2-6-4-9-2-4-4-10-5-13-1-3-2-5-3-5 0 0-1-1-1-3 0-1 0-3-1-3-1 0-2 0-2-1 0-2-7-16-9-17 0 0-1-2-1-3 0-1 0-3-1-3-1 0-1-1-1-2 0-2-1-3-2-3 0 0-2-2-3-5-1-2-2-4-3-4 0 0-2-3-3-6-2-3-3-6-4-6 0-1-2-3-3-5-1-1-3-5-4-6-5-6-10-13-10-14 0-1-1-2-3-3-1-2-3-3-3-4 0 0-2-3-4-6-2-2-4-5-4-5 0-1-2-3-4-5-1-1-3-3-3-4-3-6-58-58-68-64-3-1-5-3-5-4 0 0-1-1-2-1-1 0-2 0-2-1 0-1-1-1-2-1-1 0-3-1-4-3-1-1-4-3-5-3-2-1-4-2-4-2 0-1-2-2-4-3-2-1-4-2-4-3 0 0-1-1-2-1-1 0-2 0-2-1 0-1-2-2-4-3-1 0-7-3-12-6-19-9-28-13-41-18-9-4-11-4-14-5-1-1-6-3-11-4-4-1-9-3-10-3-1-1-4-1-6-1-2 0-4-1-4-2-1-1-3-1-5-1-3 0-5-1-5-1-1-1-4-2-7-2-3 0-6 0-6-1-1-1-3-1-6-1-3 0-6-1-8-2-6-2-26-4-71-7l-10-1-15 14c-9 8-19 19-23 23-4 4-8 8-9 9-1 2 6 2 37 3 21 0 43 1 49 2 26 3 28 3 29 4 0 1 3 1 6 1 3 0 6 1 7 2 0 0 4 1 7 1 5 1 7 1 23 6 5 1 10 3 12 3 2 0 4 1 4 2 0 0 1 1 2 1 1 0 3 1 5 1 5 3 16 7 19 8 2 0 4 1 5 2 0 0 2 1 3 1 2 0 3 1 3 1 0 1 1 2 2 2 1 0 2 0 2 1 0 1 2 1 3 1 2 0 3 1 3 2 0 1 1 1 3 1 2 0 3 1 3 1 0 1 1 2 3 2 2 1 4 2 4 3 0 0 1 1 2 1 1 0 3 1 5 2 1 2 3 3 4 3 1 0 12 7 15 10 1 1 3 2 3 2 1 0 2 1 4 3 1 1 2 2 3 2 5 0 52 45 66 63 1 2 4 5 6 7 2 2 3 4 3 5 0 1 1 2 1 2 1 0 2 2 4 4 2 2 4 5 5 7 2 1 3 3 3 4 0 1 1 2 1 2 1 0 2 1 2 2 0 1 0 2 1 2 1 1 7 11 8 14 1 1 2 2 2 2 1 0 2 1 2 2 0 1 0 2 1 2 1 0 1 1 1 3 0 1 1 3 2 3 1 0 1 1 1 2 0 1 1 3 2 5 2 1 3 3 3 5 0 1 0 2 1 2 1 0 1 1 1 3 0 1 1 3 2 3 1 0 5 10 5 12-1 1-3 3-6 5-3 2-7 4-8 6-2 1-6 4-8 6-8 5-33 29-40 37-3 3-6 7-7 8-2 2-4 5-7 8-5 6-8 9-10 12-1 1-2 2-2 2 0 1-3 5-6 10-4 4-7 9-7 10 0 1 0 1-1 1-1 0-2 1-2 2 0 1-7 12-8 13-1 0-2 1-2 3 0 1 0 2-1 2-1 0-1 1-1 2 0 1-1 2-2 2-1 0-1 1-1 3 0 1-1 3-1 3-1 0-3 4-6 8-2 5-4 9-5 9-1 0-1 1-1 3 0 1-1 2-1 3-1 0-2 2-2 3 0 2-1 3-1 3-1 0-2 1-2 3 0 1 0 2-1 2 0 0-2 3-3 7-2 3-4 7-4 8-1 2-2 4-2 5 0 1 0 2-1 2-1 0-2 1-2 2 0 2 0 4-1 5-1 2-2 4-3 6 0 2-2 6-3 9-2 2-3 6-3 7 0 2 0 3-1 4-1 0-1 2-1 4 0 1-1 3-2 3-1 0-1 2-1 4 0 2-1 4-2 5 0 0-1 2-1 3 0 2-1 4-1 5-1 0-2 4-3 9-4 17-11 25-25 29-3 1-5 2-5 3 0 0-2 1-3 1-2 0-3 0-3 1 0 0-2 2-5 3-3 1-9 3-13 5-4 1-8 3-9 3-1 0-2 0-2 1 0 1-1 1-2 1-2 0-3 1-3 2 0 1-1 1-2 1-1 0-5 2-9 3-5 2-9 4-10 4-1 0-2 0-2 1 0 1-1 1-3 1-2 0-3 1-3 2 0 0-1 1-3 1-1 0-3 1-3 1-1 1-2 2-4 2-1 0-3 0-3 1 0 1-1 1-2 1-2 1-4 1-5 3-2 1-4 2-6 2-1 0-2 0-2 1 0 1-2 1-3 1-2 0-3 1-4 2 0 0-2 1-3 1-2 0-3 0-3 1 0 1-1 2-3 2-2 0-3 0-3 1 0 1-1 1-2 1-1 0-11 4-20 8-1 1-3 1-4 1-1 0-2 1-2 2 0 1-2 1-3 1-2 0-3 1-3 2 0 0-1 1-2 1-1 0-5 1-9 3-4 2-9 4-10 4-1 0-2 0-2 1 0 1-1 1-3 1-1 0-3 1-3 2 0 0 0 1-2 1-1 0-4 1-7 3-3 1-6 2-6 2-2 0-18 7-19 9 0 0-1 1-3 1-1 0-3 0-3 1-1 1-2 1-4 1-1 0-3 1-3 2 0 0-1 1-2 1-2 0-18 7-19 8 0 1-2 1-4 1-2 0-3 1-3 2 0 0-1 1-2 1-4 0-7 3-7 8 0 2 0 4-1 4-1 0-2 2-2 4 0 3-1 10-3 17-1 7-3 16-3 18-1 3-2 7-2 8-1 2-2 6-2 9-1 7-3 17-5 24-1 4-2 10-3 14-3 13-7 18-16 23-9 4-13 4-22 0z m307-304c1-1 2-3 2-5 0-1 0-3 1-4 1-1 3-7 5-13 4-11 6-15 8-20 2-4 2-5-3-5-3-1-18-7-26-11-1 0-3-1-4-1-2 0-3 0-3-1 0-1-10-6-13-6-1 0-2 0-2-1 0-1-2-1-3-1-2 0-3-1-4-2 0 0-2-1-3-1-2 0-3-1-3-1 0-1-1-2-2-2-1 0-3 0-5-1-2-1-5-2-15-6-3-1-7-3-8-4-2 0-4-1-5-1-1 0-2 0-2-1 0 0-2-2-5-3-2-1-7-2-9-3-3-1-7-3-8-3-1-1-3-2-5-2-1 0-2 0-2-1 0-1-1-1-2-1-2 0-3-1-3-2 0 0-2-1-4-1-2 0-4-1-4-1 0-1-1-2-2-2-2 0-3 0-3-1-1-1-6-3-20-7-2-1-4-2-4-3 0 0-2-1-4-1-2 0-4 0-4-1 0-1-1-2-2-2-2 0-3 0-3-1 0 0-3-2-7-3-4-1-8-3-9-4-2 0-4-1-5-1-1 0-2 0-2-1 0-1-1-1-3-1-2 0-3-1-3-2 0-1-1-1-2-1-1 0-3-1-5-1-2-2-5-3-15-7-3-1-7-2-8-3-1-1-4-1-5-1-1 0-2-1-2-2 0 0-1-1-3-1-1 0-3-1-3-1-1-1-2-2-4-2-1 0-3 0-3-1 0 0-2-1-4-2-2 0-5-1-5-2 0-1-2-1-4-1-1 0-2-1-2-2 0 0-2-1-3-1-2 0-3-1-4-1 0-1-2-2-3-2-2 0-3 0-3-1 0 0-3-1-6-2-5-2-19-7-25-10-1-1-3-1-4-1-1 0-2-1-2-2 0 0-1-1-3-1-2 0-3-1-3-1 0-1-1-2-2-2-2 0-8-2-14-5-1-1-4-1-5-1-1 0-2-1-2-2 0 0-2-1-4-1-3 0-4 1-7 8-2 5-4 10-4 12 0 1-1 3-2 3-1 0-1 1-1 3 0 2-1 3-2 3-1 0-1 2-1 4 0 2-1 5-1 5-2 1-3 7-3 10 1 1 2 1 3 1 2 0 10 3 20 8 2 1 5 2 6 2 1 0 2 0 2 1 0 1 1 2 2 2 1 0 5 1 9 3 4 2 8 3 10 3 1 0 2 1 2 1 0 1 1 2 2 2 2 0 4 0 4 1 1 1 2 1 4 1 1 0 3 1 3 2 0 0 2 1 5 2 3 1 9 3 13 5 4 2 9 4 10 4 1 0 2 0 2 1 0 1 1 1 3 1 2 0 4 1 4 2 0 0 1 1 2 1 2 0 3 0 3 1 0 0 3 2 7 3 4 2 8 3 9 4 2 1 4 1 5 1 1 0 2 1 2 2 0 0 1 1 3 1 2 0 3 0 3 1 0 1 1 2 3 2 2 0 4 0 4 1 0 1 1 1 3 1 1 0 3 1 3 1 0 1 2 2 4 2 2 1 8 3 13 5 5 2 10 4 11 4 1 0 2 1 2 2 0 0 1 1 3 1 2 0 4 0 4 1 1 1 11 6 13 6 1 0 2 0 2 1 0 1 2 1 3 1 2 0 3 1 4 2 0 0 2 1 3 1 2 0 3 0 3 1 0 1 3 2 6 3 5 1 19 7 25 10 1 0 3 1 4 1 1 0 2 0 2 1 0 1 2 1 3 1 2 0 3 1 3 2 0 1 1 1 2 1 1 0 3 1 5 1 6 3 12 6 14 6 1 0 2 0 2 1 0 1 1 1 3 1 1 0 3 1 3 2 0 0 1 1 3 1 2 0 4 1 4 1 0 1 1 2 2 2 2 0 3 0 3 1 0 1 1 1 2 1 3 0 16 5 17 6 0 1 1 1 3 1 1 0 3 1 3 2 0 0 1 1 2 1 2 0 3 0 4 1 0 1 2 2 4 2 1 0 2 0 2 0 0 1 3 3 7 4 4 1 8 3 9 4 2 0 4 1 5 1 1 0 2 0 2 1 0 2 5 2 7-1z m-251 124c0-1 2-1 3-1 2 0 3-1 3-2 0 0 1-1 2-1 2 0 3 0 12-4 3-1 6-2 7-2 1 0 2-1 2-2 0-1 1-1 3-1 1 0 3-1 3-1 0-1 1-2 2-2 1 0 3 0 4-1 9-4 19-8 20-8 1 0 2-1 2-2 0 0 1-1 3-1 2 0 3 0 3-1 0-1 1-2 3-2 1 0 3 0 3-1 1-1 2-1 4-1 1 0 3-1 3-2 0 0 1-1 2-1 1 0 7-2 12-5 6-2 11-4 12-4 1 0 2-1 2-2 0 0 1-1 2-1 2 0 12-4 23-9 3-2 6-3 7-3 1 0 2-1 2-1 0-1 1-2 2-2 1 0 5-1 10-3 4-2 7-3 8-3 0 0 7-3 15-7 26-11 25-11 21-11-1 0-3 0-3-1 0-1-1-1-3-1-2 0-4-1-4-2 0-1-1-1-3-1-1 0-3-1-3-1 0-1 0-2-1-2-3 0-21-7-21-8-1-1-2-1-3-1-1 0-7-2-13-5-5-2-13-5-16-6-3-1-6-2-6-3 0 0-1-1-2-1-2 0-3 0-3-1 0-1-2-2-3-2-2 0-3 0-4-1 0-1-2-1-3-1-2 0-3-1-3-2 0 0-1-1-2-1-2 0-6-1-10-3-5-2-9-3-9-3-1 0-2-1-2-2 0-1-1-1-2-1-1 0-3-1-5-1-1-1-5-3-8-4-3-1-7-3-8-3-1-1-3-2-5-2-1 0-2 0-2-1 0-1-1-1-3-1-1 0-3-1-3-2 0 0-1-1-3-1-2 0-4-1-4-1 0-1-1-2-2-2-2 0-3 0-3-1 0 0-3-1-6-2-6-2-12-4-32-13-6-3-12-5-13-5-1 0-2-1-3-1 0-1-2-2-3-2-2 0-3 0-3-1 0-1-1-1-3-1-2 0-3-1-3-2 0 0-1-1-2-1-1 0-3-1-5-1-1-1-5-2-8-4-3-1-7-2-9-3-1-1-4-2-7-3-3-1-5-2-5-3 0 0-1-1-2-1-2 0-5-1-8-2-11-5-16-7-18-7-1 0-2-1-2-2 0-1-1 0-1 1-1 1-1 2 0 2 1 0 1 1 1 2 0 1 1 3 2 5 0 1 2 4 2 5 1 2 3 6 5 10 1 3 3 8 4 10 0 2 1 3 2 3 1 0 1 1 1 3 0 1 1 3 2 3 0 0 1 2 1 4 0 2 1 3 1 3 1 0 2 2 2 4 0 2 0 3 1 3 1 0 2 1 2 3 0 1 0 3 1 3 0 0 2 4 4 9 1 4 3 8 4 8 0 0 1 1 1 3 0 2 0 3 1 3 1 0 2 2 2 3 0 2 0 3 1 3 1 0 1 1 1 2 0 2 1 3 2 4 1 0 1 2 1 3 0 1 2 5 4 8 2 4 3 9 3 10 0 1 1 2 2 2 1 0 1 1 1 3 0 1 1 3 2 3 0 1 1 2 1 4 0 1 1 2 1 3 1 0 3 5 8 18 1 2 2 4 3 4 0 0 1 1 1 3 0 2 1 4 1 4 1 0 2 1 2 2 0 1 0 3 1 4 1 0 2 3 3 6 3 7 6 14 7 16 1 1 2 3 2 4 0 2 0 3 1 3 1 0 1 1 1 3 0 2 1 3 2 3 1 0 1 1 1 3 0 2 1 2 4 2 2 0 3 0 3-1z m1016-167c0-4-1-10-1-14-1-4-2-7-2-7-1 0-2-4-2-8 0-4 0-7-1-7-1 0-2-1-2-2 0-2-22-2-193-2l-193 0 1 5c0 3 2 9 3 14 1 5 2 12 2 15 0 3 0 7 1 9l2 4 386 0-1-7z m-103 189c1 0 1-1 1-2 0-1 8-12 9-13 1 0 1-1 1-2 0-2 2-3 3-5 1-1 3-4 4-6 2-2 4-6 6-8 2-2 3-5 3-6 0-1 1-1 1-1 1 0 2-1 2-2 0-1 1-2 1-2 1 0 2-1 2-2 0-1 1-3 2-4 2-2 4-5 6-8 1-3 3-7 5-8 2-2 5-7 12-19 2-3 4-6 5-6 1 0 1-1 1-3 0-1 1-2 1-2 1 0 3-4 6-8 2-4 4-7 5-7 1 0 1-1 1-2 0-1 1-2 1-2 1 0 2-1 2-2 0-1 0-2 1-2 1 0 2-1 2-2 0-1 0-2 1-2 1 0 2-2 2-3l0-4-152 0c-135 0-152 0-151 2 0 1 2 2 3 2 1 0 3 1 3 1 0 1 4 4 8 6 5 3 9 6 10 7 1 0 3 1 3 1 1 0 2 0 2 1 0 1 2 2 4 3 2 1 4 2 4 2 0 1 3 2 5 4 3 1 5 3 5 4 0 0 1 1 2 1 2 0 22 12 22 13 0 1 2 1 3 1 1 0 2 1 2 1 0 1 2 2 4 3 2 1 4 3 4 3 2 1 13 8 14 8 1 0 2 1 3 3 2 1 3 2 4 2 1 0 12 7 16 10 1 1 3 2 4 2 1 0 2 1 2 2 0 1 1 1 2 1 2 0 2 1 2 1 0 1 2 2 5 3 7 4 10 6 13 8 1 2 3 3 4 3 2 0 3 0 3 1 0 1 2 2 5 4 2 1 5 3 5 3 0 1 1 1 2 1 0 0 3 1 4 3 2 1 4 2 4 2 1 0 2 1 3 2 1 1 5 3 9 6 5 3 8 5 9 6 0 1 1 1 2 1 0 0 4 2 8 5 6 4 8 4 8 3 1-2 1-2 2-2z" horiz-adv-x="1270" />

<glyph glyph-name="kitchen" unicode="&#xe816;" d="M149 717l-149-134 145-129 145-129 10 1c37 3 74 20 109 49 6 5 12 9 13 9 2 0 136-119 136-121 0-1-7-7-15-14l-14-12-15 13-15 14-165-148-165-147 66-59 67-60 165 148 165 147-15 14-16 13 15 14 15 13 27-25c15-13 28-25 28-25 0-1-4-5-9-10l-9-8 153-136 152-137 70 62 69 62-153 136-153 137-9-8c-5-5-9-8-10-8-1 0-14 11-29 24l-28 24 9 9 10 8 12-4c36-12 83-13 130-4 112 22 229 101 299 202 27 38 46 79 55 118 4 17 4 21 4 48 0 29 0 31-4 46-15 54-58 90-121 103-22 4-62 4-88 0-85-15-166-55-239-120-42-38-73-76-97-120-15-27-23-46-30-70-13-47-12-89 3-125l4-10-9-7c-4-4-9-8-9-8-2 0-136 119-136 121 0 1 4 5 9 10 37 37 57 71 57 100l0 8-144 129c-80 71-145 129-146 129 0 0-67-60-150-133z m879 18l16-14-144-129-144-128-16 15-17 14 144 128c79 71 144 129 144 129 1 0 8-7 17-15z m-62-202l-143-128-17 14-16 15 144 128 143 129 17-15 16-14-144-129z m195 84l16-15-288-257-16 15-17 15 144 128c79 70 143 128 144 128 0 0 8-7 17-14z" horiz-adv-x="1270" />

<glyph glyph-name="sunbed" unicode="&#xe817;" d="M1205 265c-7-1-16-4-21-7-5-3-40-33-77-68l-68-63-278 0-48-50-47-50-235 0c-245 0-246 0-265-11-14-8-26-28-24-41 2-16 12-29 28-37l13-7 87-1c47 0 86-1 86-2 0-1-8-10-18-20-14-14-18-20-18-27-1-23 35-38 58-25 5 2 24 20 43 39l35 34 319 0 37-37c30-30 39-37 48-40 26-6 48 5 50 26 2 11 1 12-18 31l-19 19 61 1 61 2 140 130c77 71 142 133 144 138 20 36-24 75-74 66z m-238-205c-4-4-14-13-21-20l-14-13-84 0c-47 0-85 1-84 2 1 1 9 10 19 20l18 19 175 0-9-8z m-449 789c-27-4-40-20-40-47l0-18-10-2c-6 0-21-2-33-3-210-25-381-132-427-268-11-31-11-42 1-51 12-10 26-10 51 0 81 30 172 29 231-2 22-11 36-12 52-3 26 15 85 33 123 37l12 2 0-426 103 0 0 424 15-2c23-2 66-12 97-22 39-13 50-13 66-3 57 34 138 40 228 16 38-11 50-11 62-2 8 5 10 9 10 17 0 15-15 50-34 79-71 111-227 189-410 206l-34 3 0 18c0 13-2 21-6 27-11 15-35 24-57 20z" horiz-adv-x="1306" />

<glyph glyph-name="safe" unicode="&#xe819;" d="M24 847c-9-4-18-13-21-23-2-5-3-139-3-440l0-433 6-11c8-16 21-22 44-22l18 0 15-34 15-33 257 1 29 65 516 0 29-65 257-1 15 33 15 33 21 1c25 1 32 5 41 22l6 11 0 437-1 437-5 7c-3 4-10 9-14 12l-9 6-611 0c-504 0-613-1-620-3z m1152-67c9-3 19-10 25-18 21-22 20 6 20-374 0-390 2-356-24-382-27-26 31-24-559-23l-514 1-13 6c-15 7-30 22-38 37l-5 12-1 344c-1 387-2 358 19 380 11 12 23 19 38 22 4 1 240 2 523 2l516-1 13-6z m-1051-39c-5-2-10-7-12-11-3-4-3-78-3-342 0-322 0-337 4-345 3-5 9-11 14-13 8-5 29-5 515-5 478 0 508 0 516 4 5 3 12 9 15 13l6 9 0 674-6 7c-12 14 22 13-531 13-480 0-510 0-518-4z m688-452l0-62-69 0 0 62 69 0z m120 0l0-62-64 0 0 62 64 0z m124 0l0-62-66 0 0 62 66 0z m-664 236c37-9 72-37 88-69 46-90-19-195-122-195-89 0-154 80-133 165 11 46 51 86 98 99 18 4 50 4 69 0z m-66-51c-18-7-37-25-46-42-6-13-7-17-7-37 0-29 6-43 27-62 18-16 34-23 60-22 20 0 39 7 55 21 47 40 36 113-21 140-17 8-50 9-68 2z m486-55l0-62-69 0 0 62 69 0z m120 0l0-62-64 0 0 62 64 0z m124 0l0-62-66 0 0 62 66 0z m-244 132l0-67-69 0 0 67 69 0z m120 0l0-67-64 0 0 67 64 0z m124 0l0-67-66 0 0 67 66 0z" horiz-adv-x="1306" />

<glyph glyph-name="washing" unicode="&#xe81a;" d="M35 849c-8-2-14-6-21-13-7-7-11-14-13-23-1-4-1-120-1-466l0-461 2-5c7-15 20-27 35-30 3 0 122-1 372 0l368 0 5 2c16 7 26 19 30 35 0 3 1 114 0 466l0 460-2 6c-6 13-15 22-28 27l-5 3-369 0c-320 0-369 0-373-1z m1002-370c-7-2-11-6-19-18-17-24-28-49-39-81-17-51-26-104-30-177-1-19-1-85 0-106 3-75 12-145 25-212 2-10 4-15 9-21 4-6 13-11 21-13 4-1 215-1 220 0 7 1 13 5 18 10 7 7 9 12 12 24 16 77 25 141 29 210 1 18 1 74 0 90-5 74-18 128-42 178-20 39-46 71-79 97-7 5-19 13-24 15-7 4-9 4-56 4-23 0-43 0-45 0z m188-579c-1-4-3-8-4-10-4-7-12-12-19-13-2-1-35-1-89-1l-85 0-5 3c-11 4-16 12-18 26-1 2-1 2 1-1 4-6 9-12 14-13l4-2 90 0c81 0 90 0 93 1 8 2 13 6 17 14 1 2 2 3 2 3 0 0 0-3-1-7z m-445 746c1 0 1-169 1-376 0-263-1-377-1-378-1-4-4-7-8-9-3-2-727-2-731 0-5 2-6 4-8 8-1 3-1-33-1 582l0 174 2 0c3 0 746 0 746-1z m299-311c3-1 7-4 9-7 2-3 2-4 3-19 8-80 26-137 55-181 20-29 43-49 75-66 10-6 13-8 16-12 5-8 5-9 3-44-3-49-3-48-6-54-2-4-7-9-11-11-5-4 0-4-104-4-106 0-98 0-105 5-7 4-11 11-12 20-3 16-7 65-9 94-1 20-2 26-2 50-1 61 1 116 8 176 3 26 4 34 6 39 3 6 9 11 15 13 4 2 5 1 3-1-2-3-4-9-5-13-2-9-7-48-9-71-1-11-4-46-5-60-1-31-2-73-1-111 1-42 7-108 10-116 2-7 9-14 16-17l4-1 172 0 3 2c2 3 5 8 6 12 1 2 2 12 2 23 1 12 3 29 3 38 2 19 2 22-1 28-3 5-8 10-14 13-20 10-37 23-53 39-6 6-15 16-19 23-1 1-3 4-4 5-3 5-11 17-15 25-17 33-29 75-35 124-1 12-2 22-4 42-1 10-3 13-8 17-2 1-2 1 4 1 4 0 8-1 9-1z m-695 233c-35-2-74-14-106-30-57-30-103-78-129-136-8-19-17-46-20-65-6-36-5-81 4-115 4-17 9-32 14-44 6-13 8-17 13-26 18-32 42-61 71-84 10-8 17-13 31-22 27-16 56-27 87-33 23-5 38-6 64-6 42 1 76 9 113 26 85 41 144 119 158 213 3 18 4 54 2 73-4 36-15 71-33 104-6 11-17 28-23 36-2 2-5 6-7 8-4 5-21 23-30 31-40 35-89 59-142 68-21 3-44 4-67 2z m59-33c42-6 79-22 116-50 9-7 35-32 42-41 22-28 40-65 47-95 9-37 10-67 5-102-10-55-38-106-79-144-43-39-94-60-152-64-59-5-120 14-169 52-87 67-119 184-80 287 9 23 24 48 39 67 10 11 30 32 40 39 40 31 85 48 135 53 11 1 44 0 56-2z m-55-45c-74-7-138-53-168-120-8-18-12-34-15-55-2-13-2-40 0-54 2-18 8-39 14-52 1-2 3-6 4-9 5-12 20-34 30-45 7-8 20-21 24-24 1-1 5-4 8-6 6-5 24-17 26-17 1 0 3-1 4-2 15-8 44-17 68-20 9-1 37-1 47 0 16 2 39 8 52 13 17 7 39 20 52 31 16 13 35 34 46 53 18 30 27 60 29 96 2 27-4 62-16 88-4 11-6 14-13 27-29 48-82 84-137 94-20 3-37 4-55 2z m40-32c47-6 90-31 117-69 23-33 35-71 33-110-1-16-4-29-9-45-9-27-21-46-41-67-14-13-20-18-34-27-47-28-106-31-157-9-36 16-67 45-86 83-4 9-12 32-14 43-13 76 25 152 95 185 29 15 64 20 96 16z m731-79c5-2 14-12 20-19 21-30 39-81 45-128 2-14 2-43 0-52-3-14-7-24-15-28-3-2-9-1-14 1-24 11-52 66-63 124-4 21-6 34-6 51 0 24 4 41 12 49 4 4 6 5 12 5 4-1 5-1 9-3z m-117 169c-3-2-4-5-5-19-1-6-1-16-2-22-1-15-1-18 1-19l1-2 91 0 1 2c2 2 2 2 0 30-2 26-2 27-7 30-2 1-4 1-40 1-36 0-37 0-40-1z m70-9l2-1 4-42 1-3-3 0c-2 0-3 0-3 1 0 1-2 24-4 36-1 8-1 11-3 11 0 0 0 0 0 0 0 2 4 0 6-2z m-60 58l-4-3 0-37 69 0 0 18c0 19-1 20-3 22-1 0-11 0-32 0l-30 0z m52-7c3-1 4-2 4-15l0-12-5 0 0 11c0 12-1 15-3 16-1 1-1 1 1 1 1 0 2 0 3-1z m-334 228c3-1 8-5 9-8 1-3 2-15 2-67l0-64-749 0 0 22c-1 13 0 42 0 66 0 41 0 42 2 45 1 1 3 3 5 4 2 2 3 2 87 2 109 1 640 1 644 0z m-667-39c-4-2-6-4-8-8-1-3-1-6-1-22 0-22 0-24 7-29l4-2 151 0 3 3c7 4 7 6 7 27l0 20-3 4c-1 3-3 5-6 6-4 2-5 2-78 2-65 0-73 0-76-1z m576 0c-9-3-17-10-20-17-3-7-3-19 0-26 3-7 7-11 14-15 5-3 6-3 14-3 7 0 9 0 14 2 6 3 12 9 15 16 2 4 2 6 2 12 0 7 0 9-2 14-7 14-23 21-37 17z m-109 0c-28-8-31-45-6-58 5-3 6-3 14-3 8 0 9 0 14 3 9 4 16 14 17 24 2 10-4 22-11 28-8 6-19 9-28 6z" horiz-adv-x="1306" />

<glyph glyph-name="walking" unicode="&#xe81b;" d="M75 553c-5-2-12-7-14-11-5-7-61-217-61-230 0-11 9-24 19-30 11-5 63-17 76-17 10 0 18 3 26 10l6 5-2-9c-1-5-2-18-2-29 0-19 1-22 9-37 5-9 34-53 64-99l56-83 3-64c2-36 5-68 6-72 4-11 17-24 29-29 19-9 43-4 59 11 15 14 16 22 10 124-2 38-4 60-6 64-2 3-18 28-36 56l-34 50 48 177 21-29c14-20 23-30 26-31 3 0 28-5 56-9 27-5 50-10 51-10 1-1-21-90-50-196-29-107-52-197-52-200 0-5 11-14 17-14 3 0 7 2 10 4 5 5 4 2 65 227 23 87 43 162 45 166 2 6 4 8 12 9 11 2 26 13 31 24 8 16 2 35-12 46-8 6-8 7-6 17 3 13 0 21-10 23-11 3-19-3-23-16-2-10-4-11-8-10-3 1-22 4-41 7-34 6-36 7-42 14-3 4-21 28-39 54-38 52-55 70-76 80-43 22-94 10-123-27-10-14-10-16-1 19 2 10 5 20 5 22 0 7-10 24-17 28-7 4-70 19-79 19-3 0-10-1-16-4z m657 91c-14-5-23-14-28-27-7-20-62-240-62-247 0-12 8-26 17-32 9-6 75-22 89-22 11 0 20 3 29 11l7 7-2-7c-5-25-5-46 2-64 6-17 18-36 75-120 32-47 60-89 62-93 4-6 5-14 8-80 4-83 5-88 24-103 23-19 54-19 78 0 14 11 20 24 20 47 0 23-6 142-8 155-2 12-2 12-45 76-20 30-36 56-36 58 0 4 50 191 53 197 1 2 7-5 24-31l23-34 31-5c104-18 98-17 97-21 0-3-27-102-59-221-32-120-58-219-58-221 0-5 8-14 14-15 8-2 17 2 21 7 1 3 29 104 62 225l59 221 12 3c40 9 52 51 23 77l-11 10 3 11c1 5 2 12 1 14-4 11-19 16-29 9-3-1-7-8-9-15-2-6-3-12-4-12-1-1-92 16-94 17 0 1-21 31-45 67-27 38-48 68-55 74-11 11-35 22-54 27-19 4-58 3-74-2-19-7-36-19-49-36l-4-5 2 5c10 41 10 43 8 52-3 10-15 23-24 27-8 3-78 19-82 19-2 0-7-2-12-3z m-21-579c-57-130-61-142-62-156-1-13 0-16 5-26 11-20 29-31 53-31 14 0 17 1 28 6 6 4 15 10 18 14 4 4 23 47 50 109 24 57 45 104 45 106 1 3-10 22-35 59-20 30-38 56-39 57-2 2-18-33-63-138z m-650-32c-44-104-51-122-51-132 0-22 16-41 39-47 18-5 42 2 54 17 3 4 23 46 43 94l37 87-34 50c-18 28-34 51-35 51 0 0-24-54-53-120z m256 704c-57-7-99-61-89-113 7-34 28-60 60-74 16-7 18-8 45-8 27 0 29 1 45 8 31 14 54 44 59 75 10 67-49 121-120 112z m672 110c-30-6-59-25-75-49-25-35-25-84-1-119 49-70 154-70 202 0 24 35 24 83 0 118-17 26-45 44-77 50-18 4-31 4-49 0z" horiz-adv-x="1306" />

<glyph glyph-name="iron" unicode="&#xe81c;" d="M0-92l0-57 873 0 0 57-873 0z m990 937c-6-2-15-9-20-16-5-7-11-10-14-7-8 7-34-12-34-25 0-8-3-10-9-7-11 6-35-16-35-33 0-7-3-11-8-8-4 3-12-2-17-12-9-14-15-15-52-11-53 7-191-9-261-29-213-63-363-222-453-480-14-39-27-80-29-90l-4-18 169 0c174 0 358 10 468 25 132 17 357 79 357 97 0 15-45 191-69 270l-26 85 29 42-14 35c-11 27-13 38-8 46 3 6 4 17 2 25-2 11 0 12 10 8 9-3 17 1 27 14 8 11 18 17 26 16 10-2 13 0 10 9-2 9 2 14 13 18 40 13 89-19 106-69 14-41 12-156-5-324-17-172-17-294 2-354 20-67 65-117 115-131 17-4 18-3 18 19 0 19-2 24-12 24-22 1-57 29-75 62-37 66-41 142-19 368 8 81 14 185 15 232 1 76-1 89-13 124-10 29-22 47-41 65-24 21-31 24-73 24-25 0-45 3-45 6 0 7-13 7-31 0z m22-676c-47-20-156-49-228-63-133-24-219-31-479-36l-263-5-9-41c-6-22-10-44-10-50-1-8 86-10 417-10l418 0 31 27c46 41 91 74 139 98 23 12 42 25 42 28 0 2-3 18-6 35-6 34-9 35-52 17z m-207 380c10-40 25-175 20-181-1-2-27-6-57-7-53-3-55-2-55 14 0 10-2 25-5 33-6 15-13 16-95 16-98 0-102-2-102-46l0-27-95 0 4 39c6 63 24 108 52 128 57 41 155 66 252 64l74-1 7-32z m-564 109l0-104 37 36c19 19 38 35 41 35 3 0 5 7 5 16 0 15-4 17-41 17l-42 0z" horiz-adv-x="1306" />

<glyph glyph-name="sat-tv" unicode="&#xe81d;" d="M155-140l-68 0 0 265-87 0 0 57 242 0 0-57-87 0 0-265z m318 322l69 0-109-322-74 0-109 322 69 0 60-192c3-11 7-24 11-39 3-15 5-26 6-32 2 14 7 37 16 71l61 192z m-76 560c-47-106-36-230 33-373 80-167 247-333 414-412 132-63 267-76 359-36 43 18 55 32 28 32-8 0-38 14-66 31-104 60-217 151-356 288-180 175-301 323-361 439l-35 68-16-37z m481-377l-72-73 64-62c204-193 403-313 414-250 5 25-49 124-114 211-55 73-205 244-215 246-3 0-38-32-77-72z m142 256c-9-10-17-27-17-38 0-15-31-51-118-139-102-102-117-120-108-131 5-7 14-12 19-12 5 0 62 52 126 117 91 91 122 117 138 117 46 0 67 66 30 92-25 18-49 16-70-6z m-581 191c-49-19 82-225 264-416l62-64 145 146-36 37c-54 55-173 157-246 209-93 67-161 99-189 88z m629 19c0-16 6-20 47-28 84-17 149-85 162-169 5-34 8-39 25-39 19 0 20 3 18 36-7 109-120 219-225 219-23 0-27-3-27-19z m3-66c-7-16 3-28 23-28 50 0 112-65 112-117 0-17 3-21 20-21 16 0 20 4 20 25 0 55-60 128-120 145-40 11-50 10-55-4z m5-76c0-12 6-17 20-17 22 0 52-33 52-57 0-16 20-21 28-8 8 13-16 61-40 80-28 23-60 23-60 2z" horiz-adv-x="1343" />

<glyph glyph-name="parking" unicode="&#xe81e;" d="M452-127l-362 0c-49 0-90 41-90 90l0 797c0 50 41 90 90 90l797 0c49 0 90-40 90-90l0-455c-16 0-29 0-37-1 0 0 0 0 0 0-49-2-78-9-92-17 0 0 0 0 0 0-5-3-12-9-18-18-10-13-22-35-35-63-6 1-15 2-24 2-23 0-30-2-36-5 0 0 0 0 0 0-15-8-24-22-24-41 0-14 2-19 10-29 4-5 7-9 19-13-5-7-9-13-10-16 0 0 0 0 0 0-8-17-10-14-10-127l0-95 8-8 0-1-274 0 0 195 1 0 0 227 103 0c76 0 132 17 169 52 37 35 56 83 56 145 0 60-17 106-51 139-34 33-85 49-153 49l-313 0 0-612 186 0 0-195z m490 404c-42-2-68-7-80-14-10-6-26-33-44-73l-10-23-6 6c-3 2-7 5-9 6-2 1-12 2-22 2-15 0-20-1-24-3-6-3-9-9-9-16 0-6 1-8 4-11 4-5 7-7 29-13 7-2 13-4 14-4 0-1-6-9-14-18-7-10-15-20-17-24-7-15-7-13-7-115l0-95 9-9 34 0c29 0 35 1 38 2 5 4 6 9 6 27l0 17 333 0 0-16c0-11 0-18 2-21 3-8 5-9 42-9 35 0 37 1 41 7 2 3 3 10 3 90 0 53 0 91-1 98-2 16-8 29-25 49-7 9-13 16-13 17 1 0 8 3 17 5 19 5 25 8 28 13 3 6 2 15-1 20-4 8-9 9-32 8l-20 0-15-13-4 11c-8 19-27 55-34 67-4 7-10 14-12 16-9 7-29 12-62 15-22 2-112 2-139 1z m117-268c1-1 1-7 1-16 0-8 0-14-1-15-3-2-114-2-117 0-1 1-1 7-1 16 0 11 0 14 2 15 4 2 114 2 116 0z m-227 80c15-8 23-23 23-40-1-11-3-15-13-20-15-8-38-4-51 7-11 10-13 26-6 40 6 12 16 18 31 17 7 0 11-2 16-4z m367 2c13-4 21-17 21-31 0-15-6-24-21-31-6-3-9-3-20-3-14 0-21 2-28 9-3 4-4 6-5 13-1 13 6 29 16 37 10 8 26 10 37 6z m-116 158c20-2 37-5 41-7 2-1 6-7 9-12 7-11 42-83 41-84 0 0-14 1-30 2-100 9-214 9-303-1-7-1-14-1-14-1-1 1 33 69 40 83 4 7 8 12 10 13 8 3 38 7 70 9 20 1 122-1 136-2z m-106-25l0-42c-36-1-72-2-105-5 8 17 16 33 19 38l1 2c11 2 36 5 57 6 5 1 15 1 28 1z m-522 195l46 0c36 0 62 6 77 19 14 13 22 29 22 49 0 19-7 35-20 48-12 14-36 20-71 20l-54 0 0-136z" horiz-adv-x="1280" />

<glyph glyph-name="toiletries" unicode="&#xe81f;" d="M153 624l0-77-8-4c-19-8-48-30-66-48-45-46-71-103-77-172-2-18-2-91-2-212l1-184 5-13c7-16 22-33 39-41l13-6 415 0 13 6c17 8 33 25 39 41l6 13 0 184c1 197 0 226-9 261-19 72-65 132-126 166l-17 10 0 76-226 0z m983-137l0-63 7-3c15-7 38-24 53-39 38-38 59-85 64-141 1-15 1-74 1-174l-1-151-4-10c-5-14-18-27-32-34l-11-5-339 0-11 5c-14 7-27 20-32 34l-5 10 0 151c-1 162 0 185 8 214 15 59 53 108 102 136l15 8 0 62 185 0z m-247-217l0-311 185 0 0 311-185 0z m-435 88l0-379-226 0 0 379 226 0z m382 179c17-22 25-46 20-60-7-22-37-29-52-12-11 12-11 30-1 51 7 13 20 31 23 31 1 0 6-4 10-10z m289 132c22-7 39-27 41-49l1-9-62 0 0-64-123 0 0 64-157 0 0 62 145 0c135 0 146-1 155-4z m-607 15c-20-27-30-55-24-73 9-27 46-35 64-14 13 15 14 36 1 62-8 16-25 38-28 38-2 0-7-5-13-13z m-352 162c-27-10-47-33-50-60l-2-11 76 0 0-78 151 0 0 78 191 0 0 75-177 0c-164 0-178 0-189-4z" horiz-adv-x="1270" />

<glyph glyph-name="quad-hire" unicode="&#xe820;" d="M1056 256c-35-4-72-18-102-39-17-12-44-38-55-55-37-52-45-115-24-172 11-30 27-53 53-78 36-35 75-54 123-60 66-9 140 21 186 76 22 27 35 52 43 84 3 13 4 19 4 40 0 27-2 38-9 60-11 31-28 57-53 82-33 31-73 52-115 59-10 2-41 4-51 3z m-867-1c-78-9-149-63-178-136-8-22-11-38-11-64 0-15 1-29 2-36 15-72 74-136 147-159 23-7 37-9 62-9 53 0 101 20 142 57 20 19 34 37 45 59 18 33 23 56 22 93-1 19-2 27-5 38-11 40-31 72-62 100-35 33-78 52-125 57-17 2-22 2-39 0z m913-72c53-9 92-43 105-93 5-15 4-58 0-74-17-61-73-98-142-95-70 4-120 49-127 116-8 65 28 123 88 141 22 7 52 9 76 5z m-853-2c55-14 91-55 97-112 2-13 2-20 1-32-8-68-58-113-129-116-71-2-124 33-141 95-4 16-4 59 0 74 8 31 29 59 55 75 15 9 31 15 59 20 9 1 46-1 58-4z m343 484c-5-1-15-5-23-9-14-6-16-8-30-23-16-18-38-45-66-81-11-14-30-38-42-54-12-16-22-29-22-30 0-1 132-97 136-98 1-1 13 14 30 38 16 21 46 60 66 87 20 28 37 50 37 50 1 1 22-15 48-34 26-19 72-53 103-75 30-23 55-41 56-41 1-2-7-15-16-26-16-20-45-40-76-52l-15-6-3 8c-4 12-8 20-16 26-12 11-11 11-124 11l-101 0-43 32c-25 19-55 41-67 51-13 9-24 17-24 17-1 0-4-3-6-7-3-3-12-16-21-27-9-11-19-25-23-31-8-10-17-27-17-31 0-2-6-3-51-3-29-1-75-1-104-1l-52 0-4-6c-8-11-10-15-10-30 0-13 1-16 5-23 2-5 6-11 8-14l4-4 41-1c68-2 113-10 155-29 40-19 75-52 92-89 17-37 25-83 21-134-1-15-2-31-3-36-1-5-2-9-2-10 2-1 213 3 228 4 82 7 130 22 160 50l11 10 4 18c9 41 28 86 49 115 12 19 38 44 56 56 38 27 95 44 146 44l11 0 7 15c14 28 19 48 19 72 0 57-38 91-141 128-66 23-72 25-73 24-1-1-1-6-1-10 0-4-1-11-2-16l-1-8-27 20c-151 110-213 154-220 157-20 9-47 11-67 6z m53 184c-38-3-59-11-77-28-14-14-28-40-35-62-4-15-3-41 1-56 5-17 16-37 19-36 2 0 9 3 17 6 48 19 90 11 138-27l13-10 21-3c12-1 23-2 24-2 3 0 3 2 3 34l0 35-5 1c-3 0-20 2-37 5-17 2-33 4-35 5l-5 0 0 27c0 24 0 27 3 27 2 0 65-10 75-11 4-1 4-1 4 3 0 7-4 21-9 31-15 30-45 50-88 59-8 2-17 3-18 3-2 0-6 0-9-1z" horiz-adv-x="1306" />

<glyph glyph-name="microwave" unicode="&#xe821;" d="M34 848c-16-6-29-24-33-47-1-7-1-48-1-454l0-446 2-7c5-19 16-34 30-41l5-2 455 0 454 0 0 999-453 0c-444 0-453 0-459-2z m935 2l0-999 139 0 140 0 4 2c15 7 26 23 30 42l2 7 0 897-2 7c-4 19-15 35-30 41l-4 3-140 0-139 0z m-111-107c6-4 10-10 13-19l3-6 0-735-3-7c-3-8-7-14-13-18-5-3-5-3-14-3-9 0-9 0-14 3-6 4-10 10-13 18l-3 7 0 735 3 6c2 8 6 13 11 17 5 4 9 6 18 5 6 0 8 0 12-3z m207-695c2-2 2-4 2-25 0-21 0-22-2-24-1-2-2-2-28-2-27 0-28 0-29 2-1 2-2 3-2 24 0 21 1 23 2 25 1 1 2 2 29 2 26 0 27-1 28-2z m83 0c1-2 1-4 1-25 0-21 0-22-1-24-2-2-3-2-29-2-26 0-27 0-29 2-1 2-1 3-1 24 0 21 0 23 1 25 2 1 3 2 29 2 26 0 27-1 29-2z m81 0c2-2 2-4 2-25 0-21 0-22-2-24-1-2-2-2-28-2-26 0-27 0-29 2-1 2-1 3-1 24 0 21 0 23 1 25 2 1 3 2 29 2 26 0 27-1 28-2z m-513 657c12-4 22-17 24-33 1-8 1-632 0-640-2-16-12-30-24-33-6-2-606-2-611 0-12 3-22 17-25 33-1 8-1 632 0 640 3 15 12 29 24 33 5 1 606 2 612 0z m350-576c1-2 1-4 1-24 0-21 0-22-1-24-2-2-3-2-29-2-26 0-27 0-28 2-2 2-2 3-2 24 0 20 0 22 2 24 1 2 2 2 28 2 26 0 27 0 29-2z m83 0c2-2 2-4 2-24 0-21 0-22-2-24-1-2-2-2-28-2-27 0-28 0-29 2-1 2-2 3-2 24 0 20 1 22 2 24 1 2 2 2 29 2 26 0 27 0 28-2z m82 0c1-2 1-4 1-24 0-21 0-22-1-24-1-2-3-2-29-2-26 0-27 0-28 2-2 2-2 3-2 24 0 20 0 22 2 24 1 2 2 2 28 2 26 0 28 0 29-2z m-99 346c9-2 13-3 20-6 36-18 61-66 61-119 0-26-5-49-16-71-17-35-45-55-76-55-29 0-55 17-73 48-11 18-16 38-19 62-2 16-1 31 2 48 8 44 36 80 68 91 12 3 23 4 33 2z m-20-47c-8-3-11-5-17-8-5-4-8-7-13-14-8-11-12-19-15-33-2-7-2-10-2-22 0-13 0-15 2-22 2-10 6-20 9-25 9-15 18-23 30-28 9-3 21-3 31 0 19 8 33 27 39 54 2 6 2 9 2 21 0 12 0 15-2 22-7 30-23 48-46 55-5 1-14 1-18 0z m114 278c4-2 9-9 10-14 1-5 1-102 0-107-1-6-6-12-10-14-4-1-201-1-205 0-4 2-9 8-10 14-1 6-1 102 0 107 1 5 6 12 10 14 3 1 201 1 205 0z" horiz-adv-x="1306" />

<glyph glyph-name="welcome" unicode="&#xe822;" d="M540 846c-129-13-242-52-337-116-81-54-137-120-171-200-16-37-17-47-20-135l-3-96 41 0 40 1 4 84c4 96 14 132 54 191 54 78 133 135 242 173 79 28 120 36 207 39 266 10 505-128 547-317 4-16 7-61 7-100l0-70 88 0 0 61c0 130-27 205-105 293-28 31-107 90-155 114-126 64-291 93-439 78z m272-237c-23-8-43-31-43-50 0-27 43-58 82-58 38 0 81 31 81 58 0 18-21 42-44 51-28 10-48 10-76-1z m-299-28c-32-6-50-17-67-37-22-27-20-34 8-34 46 0 96 30 105 62 4 13 3 15-10 14-8 0-25-2-36-5z m-133-62c0-37-1-41-10-38-58 18-86 19-128 9-38-9-65-26-85-50-15-18-18-27-18-55 0-30 3-37 20-59l19-24 226-1 225-2 21 30c17 23 21 34 21 55 0 43-32 80-87 101-35 13-97 13-133 0l-27-9 0 84-44 0 0-41z m624 9c-56-9-129-50-187-106-39-37-76-82-91-110l-7-12 294 0 23 32c29 41 45 74 53 109 13 62-22 98-85 87z m-295-36c-23-9-34-24-34-43 0-57 110-69 132-15 9 21 0 40-24 54-18 10-54 12-74 4z m-657-418c29-107 53-196 53-199 0-5 108-6 520-6 286 0 520 1 520 3 0 4 101 380 104 388 3 8-29 8-623 8l-626 0 52-194z" horiz-adv-x="1270" />

<glyph glyph-name="wifi" unicode="&#xe823;" d="M610 101c-36-10-66-35-83-70-9-18-10-24-11-47-1-22 0-31 5-46 24-73 109-109 178-74 69 34 91 121 48 185-29 44-86 65-137 52z m-5 249c-95-10-190-54-261-121-23-22-22-25 21-72 43-46 43-45 70-23 43 35 84 57 129 69 25 7 32 7 78 7 46 0 53 0 78-7 45-12 87-34 129-69 27-22 27-23 70 23 32 35 36 40 36 49 0 8-3 12-15 23-61 57-141 99-221 115-26 5-91 9-114 6z m-26 248c-141-14-281-80-391-184-34-32-34-30 22-90 34-35 37-36 66-8 63 61 150 108 236 130 83 21 177 21 260 0 86-22 173-70 236-130 29-28 33-27 66 8 56 60 56 58 22 90-143 136-332 203-517 184z m7 251c-75-7-119-15-178-31-106-30-223-91-312-162-32-26-92-80-94-86-5-14-2-20 32-56 18-20 35-37 38-39 10-5 16-2 42 22 119 112 252 178 412 206 31 6 45 6 116 6 72 0 85 0 116-6 160-28 293-94 412-206 26-24 32-27 42-22 3 2 20 19 39 39 33 36 36 42 31 56-1 2-17 18-35 35-146 134-311 214-496 239-29 4-142 8-165 5z" horiz-adv-x="1306" />

<glyph glyph-name="pool" unicode="&#xe824;" d="M172 14c-30-4-56-12-85-27-41-20-57-26-77-26l-10 0 0-110 14 0c8 0 22 1 33 2 32 5 55 13 93 32 13 7 29 14 35 16 11 3 14 3 39 3 33 0 42-2 70-17 38-19 62-28 93-33 12-2 23-3 52-3 33 0 40 1 55 4 29 5 49 12 84 30 32 16 46 20 75 20 30 0 43-4 79-22 50-26 84-34 144-32 53 1 79 8 135 37 24 12 38 16 62 17 33 1 47-2 81-19 11-6 25-13 30-15 26-12 68-20 96-20l14 0 0 110-10 0c-19 0-41 8-69 22-43 23-76 32-126 33-58 1-93-6-145-33-39-20-50-22-85-21-27 1-37 4-67 19-56 29-89 37-149 35-52-1-81-9-130-35-32-16-45-19-75-19-30 0-41 3-77 21-49 25-85 34-138 33-14 0-32-1-41-2z m15 252c-41-4-68-12-117-37-24-12-33-15-54-17l-16-2 0-110 17 1c46 2 77 11 125 35 10 6 24 12 30 14 22 7 59 7 83 1 6-2 19-8 30-13 39-21 64-29 96-35 22-3 75-3 96 1 30 5 60 15 89 31 31 16 46 20 76 20 32 0 44-3 82-23 46-24 87-33 142-32 48 2 85 12 128 35 15 8 32 15 40 17 23 5 58 4 78-2 5-2 20-8 32-14 29-15 39-19 59-25 20-6 41-9 64-10l17-1 0 111-6 0c-22 0-45 7-75 23-44 24-81 32-134 32-55 0-85-7-141-36-12-5-27-12-34-14-12-4-16-4-37-4-33 0-43 2-77 20-25 13-40 19-59 25-56 15-127 13-179-7-9-4-26-12-39-18-13-7-29-14-36-16-13-4-16-4-39-4-22 0-26 0-38 4-7 2-22 8-32 13-37 20-66 30-97 35-19 2-56 4-74 2z m6 584l0-138 27-1c87-3 143-19 199-59 7-5 31-25 54-44l41-36-104-90c-57-49-104-90-104-90 0 0 5-2 10-4 6-2 22-10 37-17 14-7 30-14 35-16 14-4 38-6 56-4 22 2 33 6 61 20 50 27 94 37 150 34 46-2 81-11 122-32 34-19 47-22 77-22 21 0 35 1 47 6 9 3 54 25 54 26 0 0-99 86-219 190-136 118-226 194-236 201-77 53-162 76-281 76l-26 0z m705-2c-62-12-109-53-124-106-4-16-4-47 1-64 13-42 45-75 89-93 24-9 35-11 67-11 27 0 31 0 44 4 56 15 98 53 112 102 4 16 5 42 1 58-10 43-41 79-86 98-22 10-38 13-67 13-19 1-29 0-37-1z" horiz-adv-x="1306" />

<glyph glyph-name="zest" unicode="&#xe825;" d="M1284 92c-18-51-44-89-87-129-57-53-139-92-222-106-58-9-103-9-160 1-118 22-208 78-269 166-54 81-68 166-41 256l51-12c-7-24-11-49-11-76 1-50 15-94 44-140 35-53 83-94 145-122 23-10 76-26 96-29 162-23 310 40 385 163 5 9 12 24 18 41l51-13z m-498 150c0 0-215 53-218 54l-51 12c-10 2-20 1-29-3-9-5-15-12-18-20-30-98-14-192 46-280 21-31 45-58 72-82-110-53-246-58-363-11-32-12-69-10-97 8-29 19-41 49-35 78-117 118-127 293-11 420 132 147 380 174 552 62 91-60 143-147 152-238z m106-316c53-1 119 12 130 26 5 5 6 10 5 17-1 5-30 51-63 102l-62 93-36-106c-34-104-35-107-30-117 5-11 18-15 56-15z m-99 25c9 5 10 6 45 113l36 107-114-54c-108-52-114-55-117-65-3-9-2-14 5-23 18-25 91-73 124-81 7-1 14 0 21 3z m286 26c20 3 68 46 93 82 19 27 22 37 14 48-6 8-7 8-133 38l-126 31 61-93c50-77 73-107 81-107 1 0 6 1 10 1z m-467 113c-15 11-30 69-28 111 1 31 4 41 17 46 10 5 12 5 137-26l127-30-110-52c-90-43-128-58-135-55-1 1-4 3-8 6z m348 600c-70 23-148 11-219-32-45-28-93-78-120-125-10-18-12-20-7-8 31 76 32 154 3 217-16 35-41 63-74 84-19 12-46 24-55 24-5 0-23-22-31-41-39-85 5-192 112-271 24-18 38-26 40-24 2 1 2 1 2-1-1-4 14-6 54-7 74-2 136 9 190 33 65 29 108 76 119 129 2 9 3 16 2 17-1 0-8 2-16 5z" horiz-adv-x="1306" />

<glyph glyph-name="shopping-bag" unicode="&#xe826;" d="M793 441c-1-5-54-573-54-583l0-8 545 0-1 14c-1 7-13 136-25 287-13 150-24 278-25 283l-2 11-66 0 1-32c2-35-2-76-10-100-16-50-64-75-144-75-82 0-129 25-146 78-9 28-10 37-10 85l0 44-31 0c-22 0-31-2-32-4z m-101-591l60 663 107-10c-15 185-27 323-29 330l-2 17-112 0 2-53c3-59-4-128-17-168-28-84-108-126-243-126-138 0-216 42-245 131-15 46-17 62-17 143l0 73-52 0c-36 0-52-2-53-6-3-8-91-964-91-982l0-12 692 0z m425 210l13-22-45-77-23 0c-23 0-24 0-25-7-1-5-3-3-14 13-8 11-14 22-14 24 0 2 6 11 14 21 11 14 13 16 14 11 1-6 3-6 21-6l20 0-22 38 22 13c13 7 24 13 25 13 1 0 7-9 14-21z m-151 8c9-22 9-23 4-20-4 2-7 3-8 2 0-1-5-8-10-17l-10-16 50 0 0-56-56 0-21 37c-12 20-22 38-22 40 0 1 5 11 11 22 11 18 11 19 6 22-6 4-5 4 5 6 5 1 18 2 26 2l16 1 9-23z m-330 134l21-36-75-129-40 0c-37 0-40-1-41-12-1-9-5-6-24 22-13 18-23 36-23 40 0 3 10 19 23 35 19 24 23 27 24 19 1-10 5-11 35-11l34 0-37 65 38 22c20 12 39 22 40 22 2 0 13-16 25-37z m-254 14c15-36 15-39 5-34-5 3-11 5-11 4-1-1-9-14-18-29l-16-27 83 0 0-93-94 0-36 62c-20 34-36 64-36 67 0 2 8 19 19 37 18 30 18 32 9 38-9 5-8 6 8 9 10 1 30 3 45 4l26 0 16-38z m686-73c12-20 14-21 19-18 4 2 6 2 6 0-1-1-6-12-11-23l-9-21-21 2c-12 1-23 3-25 5-2 2-1 3 1 3 6 0 4 6-7 24l-11 17-8-15c-16-27-14-26-33-16-32 17-31 16-17 41l13 22 91 0 12-21z m-514 199c19-33 22-35 32-30 6 3 9 3 9 1-1-3-9-21-18-40l-15-35-37 4c-19 1-38 5-41 8-3 3-2 4 2 4 10 0 7 12-12 42l-18 28-14-25c-27-45-24-44-56-26-53 28-52 26-27 68l21 38 152 0 22-37z" horiz-adv-x="1306" />

<glyph glyph-name="sofa" unicode="&#xe827;" d="M1031-13c1-3 5-21 9-39 5-19 9-39 11-45 5-20 28-40 51-44 13-3 35 4 47 15 20 17 25 43 17 79-3 10-6 23-7 28l-3 10-63 0c-59 0-63 0-62-4z m-869-6c-1-5-4-18-7-28-2-10-4-24-4-32 0-46 49-77 88-55 8 4 29 25 29 28 0 1 4 20 10 42 5 22 11 44 12 48l1 7-126 0-3-10z m-80 579c-43-12-74-48-81-92-2-13-1-45 6-148 4-72 9-137 11-146 1-8 8-26 14-41 21-45 61-80 108-92 20-6 30-6 520-6 490 0 501 0 521 6 47 12 87 46 108 92 6 15 13 33 14 41 5 24 19 270 18 288-4 36-28 73-60 89-44 23-91 14-126-22-22-23-25-33-46-142-19-103-23-115-40-131-5-4-14-11-20-14l-11-6-715 0-14 8c-15 9-26 21-34 37-3 6-13 50-24 107-20 108-23 118-46 141-28 30-66 42-103 31z m171 287c-81-16-141-92-140-178 0-23 5-56 9-60 1-1 8-4 17-5 43-10 83-42 103-84 9-21 12-32 30-122 20-105 20-107 38-116 10-6 691-6 701 0 18 9 18 11 38 116 18 90 20 101 30 122 18 39 53 69 93 81l15 5 3 21c18 101-32 187-125 218-12 4-50 4-403 5-309 0-394 0-409-3z" horiz-adv-x="1343" />

<glyph glyph-name="sleeps-2" unicode="&#xe828;" d="M141 568c-46-5-87-20-112-39-9-7-18-17-24-26l-4-8-1-120c0-119 0-120 4-125 5-7 16-14 29-17 9-2 13-3 26-3 19 0 33 3 45 10 17 10 16 1 16 116l1 101 30 0 0-275c0-199 0-278 2-281 4-11 20-22 38-27 15-5 26-6 45-6 15 1 20 1 30 4 17 4 31 11 39 20l7 7 1 329 32 0 1-327 4-5c9-11 23-19 44-24 11-3 14-3 33-3 20 0 21 0 35 3 25 7 41 18 45 32 1 4 2 108 2 280l0 273 30 0 1-205 5-4c6-6 17-12 29-15 14-4 38-4 51 0 12 3 23 9 29 15l5 5 1 114c0 75 0 116-2 122-2 10-9 22-16 30-25 25-71 43-124 49-12 1-36 1-190 1-131 0-179 0-187-1z m974-2c-17 0-33-3-48-9-15-6-32-16-50-30l-31 47c23 20 46 33 67 39 21 6 42 9 62 9 27 0 50-3 70-11 19-8 36-18 49-31 13-13 23-29 29-46 6-18 9-38 9-58 0-19-4-38-11-58-8-20-19-40-34-61-14-20-32-42-52-64-20-22-43-45-69-70l-46-45 224 0 0-57-297 0-13 49 65 65c29 29 54 55 74 77 21 23 38 44 51 62 13 19 23 36 29 52 6 16 9 32 9 47 0 27-7 49-22 67-14 17-36 26-65 26z m-785 284c68 0 124-55 124-124 0-68-56-124-124-124-68 0-124 56-124 124 0 69 56 124 124 124z" horiz-adv-x="1306" />

<glyph glyph-name="sleeps-4" unicode="&#xe829;" d="M141 568c-46-5-87-20-112-39-9-7-18-17-24-26l-4-8-1-120c0-119 0-120 4-125 5-7 16-14 29-17 9-2 13-3 26-3 19 0 33 3 45 10 17 10 16 1 16 116l1 101 30 0 0-275c0-199 0-278 2-281 4-11 20-22 38-27 15-5 26-6 45-6 15 1 20 1 30 4 17 4 31 11 39 20l7 7 1 329 32 0 1-327 4-5c9-11 23-19 44-24 11-3 14-3 33-3 20 0 21 0 35 3 25 7 41 18 45 32 1 4 2 108 2 280l0 273 30 0 1-205 5-4c6-6 17-12 29-15 14-4 38-4 51 0 12 3 23 9 29 15l5 5 1 114c0 75 0 116-2 122-2 10-9 22-16 30-25 25-71 43-124 49-12 1-36 1-190 1-131 0-179 0-187-1z m1003 47l62 0 0-311 78 0 0-58-78 0 0-125-64 0 0 125-235 0 0 44 237 325z m-160-311l158 0 0 136 4 99-2 0-38-67-122-168z m-654 546c68 0 124-55 124-124 0-68-56-124-124-124-68 0-124 56-124 124 0 69 56 124 124 124z" horiz-adv-x="1306" />

<glyph glyph-name="sleeps-6" unicode="&#xe82a;" d="M141 568c-46-5-87-20-112-39-9-7-18-17-24-26l-4-8-1-120c0-119 0-120 4-125 5-7 16-14 29-17 9-2 13-3 26-3 19 0 33 3 45 10 17 10 16 1 16 116l1 101 30 0 0-275c0-199 0-278 2-281 4-11 20-22 38-27 15-5 26-6 45-6 15 1 20 1 30 4 17 4 31 11 39 20l7 8 1 328 32 0 1-327 4-5c9-11 23-19 44-24 11-3 14-3 33-3 20 0 21 0 35 3 25 7 41 18 45 32 1 4 2 108 2 280l0 273 30 0 1-205 5-4c6-6 17-12 29-15 14-4 38-4 51 0 12 3 23 9 29 15l5 5 1 114c0 75 0 116-2 122-2 10-9 22-16 30-25 25-71 43-124 49-12 1-36 1-190 1-131 0-179 0-187-1z m1007 54c35 0 67-5 95-15l-17-56c-11 5-23 8-35 11-13 3-26 5-41 5-23 0-43-5-60-13-18-9-32-21-44-36-12-15-21-34-28-55-6-21-10-45-10-71 15 19 32 32 53 41 21 8 42 13 64 13 22 0 42-4 62-11 19-7 36-17 50-31 15-14 26-31 35-51 8-20 12-42 12-68 0-26-4-50-13-71-8-21-21-39-36-53-15-15-34-27-54-35-21-8-44-12-70-12-22 0-44 4-65 13-21 8-39 22-56 41-16 19-29 43-39 73-10 29-15 65-15 107 0 50 6 93 17 128 12 35 28 63 47 85 20 21 43 37 68 47 25 9 52 14 80 14z m-140-321c0-18 2-36 7-52 5-16 13-31 22-43 9-12 21-21 34-28 13-7 27-11 43-11 15 0 29 3 41 9 12 6 23 14 32 24 9 11 16 23 21 37 5 14 7 30 7 46 0 37-9 65-28 82-19 17-44 26-76 26-23 0-43-6-59-17-16-11-28-23-36-38-3-6-5-12-7-17-1-6-1-12-1-18z m-678 549c68 0 124-56 124-124 0-68-56-124-124-124-68 0-124 56-124 124 0 68 56 124 124 124z" horiz-adv-x="1306" />

<glyph glyph-name="sleeps-8" unicode="&#xe82b;" d="M141 568c-46-5-87-20-112-39-9-7-18-17-24-26l-4-8-1-120c0-119 0-120 4-125 5-7 16-14 29-17 9-2 13-3 26-3 19 0 33 3 45 10 17 10 16 1 16 116l1 101 30 0 0-275c0-199 0-278 2-281 4-11 20-22 38-27 15-5 26-6 45-6 15 1 20 1 30 4 17 4 31 11 39 20l7 8 1 328 32 0 1-327 4-5c9-11 23-19 44-24 11-3 14-3 33-3 20 0 21 0 35 3 25 7 41 18 45 32 1 4 2 108 2 280l0 273 30 0 1-205 5-4c6-6 17-12 29-15 14-4 38-4 51 0 12 3 23 9 29 15l5 5 1 114c0 75 0 116-2 122-2 10-9 22-16 30-25 25-71 43-124 49-12 1-36 1-190 1-131 0-179 0-187-1z m976 54c26 0 48-3 67-10 19-7 35-16 48-27 13-12 23-25 30-40 6-14 10-30 10-46 0-23-8-46-24-67-15-21-39-37-71-50 36-15 63-32 81-52 17-20 26-45 26-76 0-23-4-43-12-60-9-17-20-32-35-44-15-12-33-21-53-27-21-6-43-9-67-9-24 0-46 3-66 9-21 7-39 15-54 27-15 11-27 25-36 42-9 16-13 35-13 56 0 32 8 58 24 77 17 19 42 37 78 52-27 12-48 28-63 47-15 20-23 42-23 68 0 17 3 34 9 49 7 16 16 30 29 42 13 12 29 22 48 29 19 7 41 10 67 10z m-6-270c-28-9-51-21-68-37-17-15-26-37-26-65 0-22 9-41 25-58 17-16 42-25 75-25 15 0 29 2 41 7 12 4 23 10 31 18 9 8 15 17 19 27 5 10 7 20 7 31 0 13-3 25-8 36-5 11-12 20-22 28-9 8-20 16-33 22-13 6-27 11-41 16z m-82 144c0-12 3-23 8-32 5-10 11-18 19-25 8-7 18-13 29-19 11-5 22-10 34-14 12 4 24 10 34 15 11 6 20 13 28 20 7 8 14 16 18 26 4 9 7 19 7 31 0 11-3 20-7 29-5 9-12 17-20 23-8 7-17 12-28 15-11 4-22 5-34 5-15 0-27-2-38-6-11-4-21-9-28-16-7-7-13-15-16-24-4-9-6-19-6-28z m-699 354c68 0 124-56 124-124 0-68-56-124-124-124-68 0-124 56-124 124 0 68 56 124 124 124z" horiz-adv-x="1306" />

<glyph glyph-name="bedding" unicode="&#xe82c;" d="M457 848c-105-6-202-38-284-95-30-20-167-137-170-144-4-8-4-17 0-24 5-6 160-134 179-147 7-4 19-12 27-17l15-8-17 0c-45 0-85-8-116-23-23-12-56-40-68-59-15-25-21-43-22-68-3-45 15-83 54-116l19-16-12-9c-57-42-77-113-49-172 11-21 22-36 43-53 33-27 68-41 114-45 16-1 195-2 524-1 468 0 500 0 512 4 31 9 59 31 71 57 5 9 6 16 6 34 0 19 0 23-7 34-4 6-10 15-13 19-3 4-6 7-6 8 0 0 4 5 9 11 24 30 24 72 0 102-5 6-9 11-9 11 0 1 4 6 9 12 24 30 24 71 0 102-5 6-9 11-9 11 0 1 2 4 6 8 3 4 9 12 13 19 7 11 7 15 7 34 0 18-1 24-6 34-8 17-25 35-43 45-25 14-32 15-109 16l-68 2 10 5c6 2 19 10 29 17 21 14 180 142 185 149 4 7 4 20-1 28-4 7-150 127-178 146-43 29-101 55-155 70-42 11-79 17-124 19-42 3-326 3-366 0z m735-753c10-6 17-17 17-26 0-8-7-19-16-25l-7-4-1010-2-10-6c-25-17-17-48 13-55 8-2 154-2 507-2l497 0 9-5c22-13 22-38 0-51l-9-5-1024 1-17 7c-21 9-44 27-54 42-21 36-14 78 18 105 14 13 29 21 48 27 12 3 45 3 521 3l508 0 9-4z m0 249c10-6 17-17 17-26 0-8-7-19-16-25l-7-4-1010-2-10-6c-25-17-17-48 13-55 8-2 154-2 507-2l497 0 9-5c22-13 22-38 0-51l-9-4-1024 1-17 6c-21 9-44 27-54 43-21 35-14 77 18 104 14 13 29 21 48 27 12 3 45 3 521 3l508 0 9-4z m-83 187c-44-35-75-57-105-72-37-18-81-32-129-41l-26-4-208 0c-207 0-209 0-234 4-97 18-159 48-250 125l-28 23 1024 0-44-35z m-232 249c66-12 121-33 170-66 11-7 40-28 64-48l44-35-1026 0 40 33c23 18 48 38 57 44 60 41 135 68 214 77 4 0 99 0 210 0 199 0 202 0 227-5z" horiz-adv-x="1306" />

<glyph glyph-name="luggage" unicode="&#xe82d;" d="M1141-44c0-48-39-86-87-86-48 0-87 39-87 87l174 0 0-1z m-711 847c0 26 22 47 48 47l328 0c26 0 48-21 48-47l164 0 0-1-60-60-144-14-148-149 147-147 149 149 14 143 42 42 0-777 72 0 0 814 50 0c80 0 144-57 144-127l0-592c0-70-64-127-144-127l-823 0 0-1c0-48-39-86-87-86-48 0-87 39-87 87l1 0c-80 0-144 57-144 127l0 592c0 70 64 127 144 127l50 0 0-814 72 0 0 814 164 0z m397-167c26 0 48-21 48-48 0-26-22-48-48-48-27 0-48 22-48 48 0 27 21 48 48 48z" horiz-adv-x="1306" />
</font>
</defs>
</svg>
